<?xml version="1.0" standalone="no"?>
<!DOCTYPE svg PUBLIC "-//W3C//DTD SVG 1.1//EN" "http://www.w3.org/Graphics/SVG/1.1/DTD/svg11.dtd" >
<svg xmlns="http://www.w3.org/2000/svg" xmlns:xlink="http://www.w3.org/1999/xlink" version="1.1">
<metadata>
Created by FontForge 20170731 at Fri Sep 10 22:54:48 2021
 By Aleksey,,,
Copyright 2000-2003, The Font Bureau, Inc. Designed by Cyrus Highsmith, Tobias Frere-Jones, and Font Bureau. All rights reserved.
</metadata>
<defs>
<font id="BentonSans-Regular" horiz-adv-x="1533" >
  <font-face 
    font-family="BentonSans Regular"
    font-weight="400"
    font-stretch="normal"
    units-per-em="2048"
    panose-1="2 0 5 3 4 0 0 2 0 4"
    ascent="1638"
    descent="-410"
    x-height="1081"
    cap-height="1516"
    bbox="-193 -420 2769 1958"
    underline-thickness="40"
    underline-position="-312"
    unicode-range="U+0020-FB0C"
  />
<missing-glyph horiz-adv-x="1556" 
d="M369 348l-56 -4v148l64 -5l12 205l-369 -30v190l369 -31l-12 209l-64 -4v148l56 -5l-4 54h147l-4 -62l207 -14l-31 369h190l-30 -369l207 14l-4 62h147l-4 -54l55 5v-148l-63 4l-15 -209l369 31v-190l-369 30l15 -205l63 5v-148l-55 4l4 -57h-147l4 65l-207 13l30 -369
h-190l31 369l-207 -13l4 -65h-147zM1057 1036l-213 13v-228h225zM715 821v228l-215 -13l-13 -215h228zM844 692v-225l213 12l12 213h-225zM500 479l215 -12v225h-228z" />
    <glyph glyph-name="ff" unicode="ff" horiz-adv-x="1320" 
d="M240 0v936h-189v145h189v146q0 140 78 216.5t233 76.5q20 0 55.5 -3.5t42.5 -3.5v-141q-36 4 -71 4q-76 0 -119 -37.5t-43 -113.5v-144h436v142q0 142 79 219.5t245 77.5q18 0 56.5 -3.5t45.5 -3.5v-143q-27 6 -76 6q-174 0 -174 -151v-144h238v-145h-238v-936h-176v936
h-436v-936h-176z" />
    <glyph glyph-name="fi" unicode="fi" horiz-adv-x="1210" 
d="M850 1307v178h180v-178h-180zM240 0v936h-189v145h189v146q0 140 78 216.5t233 76.5q18 0 54.5 -3.5t43.5 -3.5v-143q-18 4 -71 4q-77 0 -119.5 -37t-42.5 -114v-142h225v-145h-225v-936h-176zM852 0v1081h176v-1081h-176z" />
    <glyph glyph-name="ffi" unicode="ffi" horiz-adv-x="1804" 
d="M1460 1307v178h180v-178h-180zM240 0v936h-189v145h189v146q0 140 78 216.5t233 76.5q20 0 55.5 -3.5t42.5 -3.5v-143q-18 4 -71 4q-77 0 -119.5 -37t-42.5 -114v-142h436v140q0 140 78.5 219.5t232.5 79.5q17 0 53.5 -3.5t43.5 -3.5v-143q-16 4 -72 4q-160 0 -160 -151
v-142h223v-145h-223v-936h-176v936h-436v-936h-176zM1462 0v1081h176v-1081h-176z" />
    <glyph glyph-name="ffl" unicode="ffl" horiz-adv-x="1804" 
d="M240 0v936h-189v145h189v146q0 140 78 216.5t233 76.5q20 0 55.5 -3.5t42.5 -3.5v-143q-18 4 -71 4q-77 0 -119.5 -37t-42.5 -114v-142h436v140q0 140 78.5 219.5t232.5 79.5q17 0 53.5 -3.5t43.5 -3.5v-143q-16 4 -72 4q-160 0 -160 -151v-142h223v-145h-223v-936h-176
v936h-436v-936h-176zM1462 0v1516h176v-1516h-176z" />
    <glyph glyph-name="fj" unicode="fj" horiz-adv-x="1206" 
d="M850 1307v178h180v-178h-180zM240 0v936h-189v145h189v146q0 140 78 216.5t233 76.5q18 0 54.5 -3.5t43.5 -3.5v-143q-18 4 -71 4q-77 0 -119.5 -37t-42.5 -114v-142h225v-145h-225v-936h-176zM778 -412q-43 0 -106 9v133q36 -9 71 -9q109 0 109 125v1235h176v-1247
q0 -118 -57.5 -182t-192.5 -64z" />
    <glyph glyph-name=".notdef" horiz-adv-x="1556" 
d="M369 348l-56 -4v148l64 -5l12 205l-369 -30v190l369 -31l-12 209l-64 -4v148l56 -5l-4 54h147l-4 -62l207 -14l-31 369h190l-30 -369l207 14l-4 62h147l-4 -54l55 5v-148l-63 4l-15 -209l369 31v-190l-369 30l15 -205l63 5v-148l-55 4l4 -57h-147l4 65l-207 13l30 -369
h-190l31 369l-207 -13l4 -65h-147zM1057 1036l-213 13v-228h225zM715 821v228l-215 -13l-13 -215h228zM844 692v-225l213 12l12 213h-225zM500 479l215 -12v225h-228z" />
    <glyph glyph-name=".null" horiz-adv-x="0" 
 />
    <glyph glyph-name="nonmarkingreturn" horiz-adv-x="682" 
 />
    <glyph glyph-name="space" unicode=" " horiz-adv-x="479" 
 />
    <glyph glyph-name="exclam" unicode="!" horiz-adv-x="657" 
d="M274 426l-53 1090h219l-51 -1090h-115zM225 0v211h211v-211h-211z" />
    <glyph glyph-name="quotedbl" unicode="&#x22;" horiz-adv-x="849" 
d="M557 993l-35 402v121h166v-121l-35 -402h-96zM195 993l-35 402v121h168v-121l-35 -402h-98z" />
    <glyph glyph-name="numbersign" unicode="#" horiz-adv-x="1470" 
d="M227 0l90 432h-235v141h266l76 369h-254v141h285l90 433h162l-91 -433h363l90 433h162l-90 -433h245v-141h-274l-78 -369h264v-141h-292l-93 -432h-161l90 432h-361l-92 -432h-162zM510 573h362l76 369h-360z" />
    <glyph glyph-name="dollar" unicode="$" horiz-adv-x="1339" 
d="M604 -10q-96 7 -178 36t-140.5 72.5t-99.5 89t-71 97.5l131 86q72 -108 156 -167.5t208 -70.5v586q-82 24 -139.5 44.5t-121 55.5t-102 76t-64 102.5t-25.5 137.5q0 163 119.5 273t326.5 122v147h127v-151q82 -8 150 -32t118 -61t85.5 -76t66.5 -89l-129 -97
q-59 95 -124.5 144.5t-170.5 62.5v-528q73 -20 124.5 -37.5t112.5 -44.5t102 -59.5t77 -76t53.5 -101.5t17.5 -128q0 -175 -127.5 -287.5t-355.5 -127.5v-178h-127v180zM610 1382q-140 -7 -210 -71t-70 -162q0 -55 20 -97.5t60.5 -73t86.5 -51.5t113 -42v497zM727 133
q315 21 315 256q0 64 -23 112.5t-69.5 82.5t-97 56.5t-125.5 45.5v-553z" />
    <glyph glyph-name="percent" unicode="%" horiz-adv-x="2037" 
d="M473 612q-167 0 -260.5 125.5t-93.5 333.5q0 214 96.5 340.5t259.5 126.5q162 0 256 -124.5t94 -336.5q0 -208 -94 -336.5t-258 -128.5zM487 0l906 1516h159l-905 -1516h-160zM1565 -20q-166 0 -259.5 125.5t-93.5 332.5q0 214 97 340.5t260 126.5q161 0 255.5 -125
t94.5 -336q0 -207 -95 -335.5t-259 -128.5zM475 748q93 0 144 90t51 235q0 153 -51.5 241.5t-145.5 88.5q-95 0 -146 -90t-51 -236q0 -154 51 -241.5t148 -87.5zM1567 113q94 0 145 91.5t51 237.5q0 153 -51.5 240.5t-146.5 87.5t-146 -90t-51 -236q0 -154 51.5 -242.5
t147.5 -88.5z" />
    <glyph glyph-name="ampersand" unicode="&#x26;" horiz-adv-x="1484" 
d="M582 -29q-245 0 -377.5 109.5t-132.5 294.5q0 81 27 151.5t78.5 126.5t111 99.5t137.5 83.5q-102 181 -102 346q0 72 23 136t67.5 115t116 81t161.5 30q159 0 245.5 -84.5t86.5 -214.5q0 -77 -28.5 -143t-84 -120t-118 -95t-148.5 -84q29 -45 131 -176q133 -172 244 -283
q118 161 149 418h164q-43 -310 -192 -510q152 -117 301 -117v-155q-122 5 -218.5 39t-195.5 112q-187 -160 -446 -160zM580 909q66 35 111 65t87 69t63 86.5t21 103.5q0 71 -43.5 119.5t-126.5 48.5q-94 0 -146 -56t-52 -153q0 -134 86 -283zM594 121q187 0 317 106
q-111 105 -274 310q-96 123 -139 186q-246 -144 -246 -330q0 -132 87.5 -202t254.5 -70z" />
    <glyph glyph-name="quotesingle" unicode="'" horiz-adv-x="489" 
d="M195 993l-35 402v121h168v-121l-35 -402h-98z" />
    <glyph glyph-name="parenleft" unicode="(" horiz-adv-x="817" 
d="M635 -420q-257 216 -385.5 456t-128.5 527q0 288 128.5 527.5t385.5 455.5l80 -88q-190 -180 -297 -407.5t-107 -487.5q0 -261 108 -490.5t300 -408.5z" />
    <glyph glyph-name="parenright" unicode=")" horiz-adv-x="817" 
d="M182 -420l-84 84q191 179 298.5 408.5t107.5 490.5t-106.5 488.5t-297.5 406.5l82 88q256 -216 384 -455t128 -528q0 -288 -128 -528t-384 -455z" />
    <glyph glyph-name="asterisk" unicode="*" horiz-adv-x="1040" 
d="M362 702l-116 68l209 303l-369 -24v127l371 -27l-211 303l116 70l158 -334l158 334l117 -70l-209 -303l368 27v-127l-368 24l209 -303l-115 -68l-160 334z" />
    <glyph glyph-name="plus" unicode="+" horiz-adv-x="1306" 
d="M578 158v450h-443v148h443v450h151v-450h445v-148h-445v-450h-151z" />
    <glyph glyph-name="comma" unicode="," horiz-adv-x="555" 
d="M197 -215l55 215h-80v215h211v-190l-104 -240h-82z" />
    <glyph glyph-name="hyphen" unicode="-" horiz-adv-x="731" 
d="M127 573v140h477v-140h-477z" />
    <glyph glyph-name="period" unicode="." horiz-adv-x="555" 
d="M172 0v215h211v-215h-211z" />
    <glyph glyph-name="slash" unicode="/" horiz-adv-x="1159" 
d="M47 0l881 1516h184l-881 -1516h-184z" />
    <glyph glyph-name="zero" unicode="0" horiz-adv-x="1353" 
d="M678 -29q-268 0 -420 214t-152 573t152 572.5t420 213.5q269 0 418 -212.5t149 -573.5t-149 -574t-418 -213zM678 129q185 0 287 161.5t102 467.5q0 304 -103.5 465t-285.5 161q-188 0 -289.5 -160t-101.5 -466q0 -304 104 -466.5t287 -162.5z" />
    <glyph glyph-name="one" unicode="1" horiz-adv-x="894" 
d="M111 0v160h284v1167q-56 -30 -135.5 -50t-144.5 -20v160q188 6 288 99h168v-1356h254v-160h-714z" />
    <glyph glyph-name="two" unicode="2" horiz-adv-x="1212" 
d="M90 0v33q0 87 22.5 164t76.5 161t153.5 172.5t245.5 182.5q120 77 185.5 133.5t99.5 121t34 144.5q0 126 -75 199t-209 73q-234 0 -371 -249l-139 86q178 323 518 323q208 0 330 -116t122 -304q0 -152 -83 -267t-298 -251q-384 -244 -409 -446h799v-160h-1002z" />
    <glyph glyph-name="three" unicode="3" horiz-adv-x="1222" 
d="M588 -29q-170 0 -308.5 71.5t-226.5 205.5l131 98q152 -217 404 -217q159 0 251.5 76.5t92.5 210.5q0 160 -110 235.5t-357 75.5h-62v150h72q226 0 323 66t97 198q0 113 -73 177t-228 64q-210 0 -356 -172l-117 109q89 103 213.5 163t273.5 60q117 0 208 -30t146 -82.5
t83 -120t28 -146.5q0 -141 -78.5 -234t-216.5 -124q332 -66 332 -393q0 -194 -143 -317.5t-379 -123.5z" />
    <glyph glyph-name="four" unicode="4" horiz-adv-x="1267" 
d="M793 0v350h-732v137l691 1029h215v-1008h256v-158h-256v-350h-174zM260 508h533v797h-5z" />
    <glyph glyph-name="five" unicode="5" horiz-adv-x="1202" 
d="M584 -29q-164 0 -296.5 69t-217.5 189l120 111q167 -211 390 -211q90 0 160.5 30t113 81.5t64.5 117t22 140.5q0 169 -90 260.5t-240 91.5q-209 0 -334 -176l-129 45l60 797h823l-14 -162h-664l-37 -484q118 131 330 131q213 0 343 -135t130 -360q0 -236 -144.5 -385.5
t-389.5 -149.5z" />
    <glyph glyph-name="six" unicode="6" horiz-adv-x="1267" 
d="M659 -29q-119 0 -218.5 47t-175 138.5t-117.5 238.5t-42 336q0 179 47 331.5t128.5 258t195 164.5t244.5 59q223 0 371 -119l-91 -133q-63 47 -128.5 70.5t-157.5 23.5q-128 0 -226.5 -81t-151 -222t-54.5 -321q184 192 422 192q228 0 352.5 -128.5t124.5 -346.5
q0 -220 -147.5 -364t-375.5 -144zM670 125q155 0 246.5 93t91.5 257q0 150 -80.5 238t-249.5 88q-116 0 -220.5 -56t-170.5 -145q21 -239 123.5 -357t259.5 -118z" />
    <glyph glyph-name="seven" unicode="7" horiz-adv-x="1120" 
d="M229 0l627 1354h-768v162h956v-152l-630 -1364h-185z" />
    <glyph glyph-name="eight" unicode="8" horiz-adv-x="1255" 
d="M629 -33q-256 0 -405.5 114.5t-149.5 289.5q0 101 49.5 182.5t131.5 138t208 109.5q-163 75 -241.5 159.5t-78.5 215.5q0 71 33 137.5t93.5 119t154 84t205.5 31.5q114 0 207.5 -32t152 -84.5t90 -118.5t31.5 -137q0 -126 -79 -211t-243 -158q99 -43 166 -82.5t121 -91
t79.5 -116t25.5 -146.5q0 -173 -149 -288.5t-402 -115.5zM637 872q166 74 232.5 135.5t66.5 157.5q0 95 -78.5 163.5t-228.5 68.5q-147 0 -228.5 -66.5t-81.5 -159.5q0 -99 71.5 -161t246.5 -138zM629 117q166 0 269 72t103 192q0 113 -91 190.5t-294 161.5
q-194 -88 -278 -165.5t-84 -186.5q0 -117 104.5 -190.5t270.5 -73.5z" />
    <glyph glyph-name="nine" unicode="9" horiz-adv-x="1267" 
d="M547 -29q-234 0 -387 131l88 134q70 -54 139.5 -81.5t165.5 -27.5q128 0 226 82t150 223.5t54 321.5q-185 -193 -422 -193q-226 0 -350.5 128.5t-124.5 346.5q0 220 147 364t375 144q119 0 218.5 -47t174 -139t116.5 -238.5t42 -335.5q0 -180 -46.5 -332t-127.5 -257.5
t-194 -164.5t-244 -59zM590 715q115 0 219 56t170 144q-19 239 -121.5 356.5t-259.5 117.5q-155 0 -246.5 -92.5t-91.5 -256.5q0 -150 80 -237.5t250 -87.5z" />
    <glyph glyph-name="colon" unicode=":" horiz-adv-x="563" 
d="M176 864v217h211v-217h-211zM176 0v215h211v-215h-211z" />
    <glyph glyph-name="semicolon" unicode=";" horiz-adv-x="563" 
d="M176 864v217h211v-217h-211zM199 -215l57 215h-80v215h211v-188l-106 -242h-82z" />
    <glyph glyph-name="less" unicode="&#x3c;" horiz-adv-x="1306" 
d="M1192 139l-1083 465v119l1083 465v-158l-885 -366l885 -367v-158z" />
    <glyph glyph-name="equal" unicode="=" horiz-adv-x="1306" 
d="M135 829v142h1034v-142h-1034zM135 362v142h1034v-142h-1034z" />
    <glyph glyph-name="greater" unicode="&#x3e;" horiz-adv-x="1306" 
d="M119 139v158l885 367l-885 366v158l1083 -465v-119z" />
    <glyph glyph-name="question" unicode="?" horiz-adv-x="1124" 
d="M436 424q-6 65 -6 137q0 108 45 181t146 132q66 40 101 65.5t66.5 59.5t43.5 72.5t12 91.5q0 103 -75.5 162t-207.5 59q-216 0 -364 -196l-121 100q96 121 214 188.5t283 67.5q206 0 327.5 -102.5t121.5 -267.5q0 -71 -19 -128.5t-57.5 -101.5t-79.5 -75.5t-102 -67.5
q-45 -26 -74.5 -46.5t-50.5 -47t-32 -49t-17.5 -61.5t-8 -74.5t-1.5 -98.5h-144zM403 0v211h209v-211h-209z" />
    <glyph glyph-name="at" unicode="@" horiz-adv-x="1777" 
d="M883 -29q-172 0 -318.5 57.5t-249.5 160t-161 249t-58 318.5q0 230 102.5 410t283.5 279t409 99q169 0 315.5 -56.5t251 -157t164 -243t59.5 -309.5q0 -211 -98.5 -336t-257.5 -125q-99 0 -162 42t-86 114q-155 -145 -336 -145q-137 0 -219 83t-82 242q0 156 53.5 282.5
t150.5 198.5t218 72q152 0 260 -108l15 92h143l-90 -606q-12 -75 28 -122.5t123 -47.5q106 0 174 92.5t68 267.5q0 197 -89 351.5t-246.5 239.5t-356.5 85q-201 0 -358.5 -87.5t-245.5 -246t-88 -360.5q0 -201 87.5 -360t244 -247t354.5 -88q223 0 411 107l43 -74
q-202 -123 -456 -123zM776 444q139 0 268 123l62 408q-49 57 -105.5 82.5t-130.5 25.5q-125 0 -204.5 -122t-79.5 -293q0 -224 190 -224z" />
    <glyph glyph-name="A" unicode="A" horiz-adv-x="1392" 
d="M66 0l536 1522h189l536 -1522h-186l-150 434h-602l-149 -434h-174zM444 592h492l-242 711h-4z" />
    <glyph glyph-name="B" unicode="B" horiz-adv-x="1415" 
d="M186 0v1516h543q250 0 384 -96t134 -283q0 -148 -77.5 -236.5t-202.5 -114.5v-4q150 -28 239.5 -119.5t89.5 -248.5q0 -193 -137.5 -303.5t-386.5 -110.5h-586zM365 854h348q174 0 266 63t92 191q0 130 -84.5 189t-269.5 59h-352v-502zM365 158h395q358 0 358 268
q0 139 -103 205.5t-292 66.5h-358v-540z" />
    <glyph glyph-name="C" unicode="C" horiz-adv-x="1443" 
d="M756 -29q-292 0 -467.5 212.5t-175.5 580.5q0 352 178.5 566t464.5 214q444 0 561 -465l-172 -47q-51 179 -141 262.5t-250 83.5q-212 0 -335.5 -165t-123.5 -447q0 -298 124.5 -464.5t338.5 -166.5q161 0 262.5 91t148.5 276l170 -39q-57 -232 -204.5 -362t-378.5 -130z
" />
    <glyph glyph-name="D" unicode="D" horiz-adv-x="1464" 
d="M186 0v1516h400q370 0 567 -189t197 -565q0 -379 -198.5 -570.5t-565.5 -191.5h-400zM367 162h241q281 0 421 144.5t140 455.5q0 302 -142 445t-423 143h-237v-1188z" />
    <glyph glyph-name="E" unicode="E" horiz-adv-x="1247" 
d="M186 0v1516h930v-166h-749v-473h557v-162h-557v-551h792v-164h-973z" />
    <glyph glyph-name="F" unicode="F" horiz-adv-x="1165" 
d="M186 0v1516h910v-166h-729v-488h536v-162h-536v-700h-181z" />
    <glyph glyph-name="G" unicode="G" horiz-adv-x="1495" 
d="M745 -29q-200 0 -344.5 103t-216 280.5t-71.5 409.5q0 237 82 414.5t228 271.5t335 94q443 0 561 -469l-168 -43q-54 184 -146 265t-249 81q-92 0 -173 -36t-146.5 -107.5t-103.5 -191t-38 -273.5q0 -308 129 -472.5t338 -164.5q180 0 288 116t111 324h-348v152h522v-725
h-157v227h-4q-51 -108 -158.5 -182t-270.5 -74z" />
    <glyph glyph-name="H" unicode="H" horiz-adv-x="1513" 
d="M186 0v1516h181v-635h780v635h180v-1516h-180v715h-780v-715h-181z" />
    <glyph glyph-name="I" unicode="I" horiz-adv-x="593" 
d="M207 0v1516h180v-1516h-180z" />
    <glyph glyph-name="J" unicode="J" horiz-adv-x="1034" 
d="M434 -29q-131 0 -223.5 51.5t-161.5 147.5l121 102q104 -143 258 -143q123 0 189.5 68t66.5 225v1094h180v-1106q0 -212 -113.5 -325.5t-316.5 -113.5z" />
    <glyph glyph-name="K" unicode="K" horiz-adv-x="1388" 
d="M186 0v1516h181v-783l686 783h217l-520 -578l591 -938h-206l-504 801l-264 -289v-512h-181z" />
    <glyph glyph-name="L" unicode="L" horiz-adv-x="1165" 
d="M186 0v1516h181v-1352h729v-164h-910z" />
    <glyph glyph-name="M" unicode="M" horiz-adv-x="1798" 
d="M186 0v1516h236l477 -1289h4l469 1289h240v-1516h-178v1227h-4q-7 -28 -19 -65.5t-21.5 -64.5t-27 -76.5t-25.5 -72.5l-362 -948h-162l-362 948q-66 178 -95 285h-4v-1233h-166z" />
    <glyph glyph-name="N" unicode="N" 
d="M186 0v1516h191l797 -1199h4v1199h170v-1516h-162l-826 1231h-4v-1231h-170z" />
    <glyph glyph-name="O" unicode="O" 
d="M768 -29q-140 0 -260.5 55t-208 155t-137 249t-49.5 328t49.5 327.5t137 248.5t208 155t260.5 55t260 -55t206.5 -155t135.5 -248.5t49 -327.5t-49 -327.5t-135.5 -249t-206.5 -155.5t-260 -55zM768 133q210 0 340.5 167t130.5 458q0 290 -130.5 456t-340.5 166
q-213 0 -343 -165.5t-130 -456.5q0 -292 130 -458.5t343 -166.5z" />
    <glyph glyph-name="P" unicode="P" horiz-adv-x="1329" 
d="M186 0v1516h514q256 0 401.5 -106.5t145.5 -324.5q0 -95 -28 -170.5t-77.5 -126t-120 -84t-153 -48.5t-180.5 -15h-321v-641h-181zM367 801h331q188 0 279.5 64.5t91.5 213.5q0 143 -92.5 208t-280.5 65h-329v-551z" />
    <glyph glyph-name="Q" unicode="Q" 
d="M1126 -385q-224 0 -340.5 100t-119.5 267q-246 33 -399.5 243t-153.5 533q0 179 51 328t139 248.5t208 154.5t257 55t256 -55t206.5 -154.5t138 -248.5t50.5 -328q0 -330 -159 -540t-412 -238q7 -63 33 -105t71 -64.5t98.5 -31t129.5 -8.5h104v-156h-158zM768 131
q209 0 339 168t130 459t-129.5 456.5t-339.5 165.5q-213 0 -344 -165.5t-131 -456.5q0 -292 131 -459.5t344 -167.5z" />
    <glyph glyph-name="R" unicode="R" horiz-adv-x="1386" 
d="M186 0v1516h521q260 0 399 -108t139 -316q0 -342 -352 -416l373 -676h-197l-362 653h-342v-653h-179zM365 813h331q187 0 279 61.5t92 210.5q0 144 -92 205.5t-281 61.5h-329v-539z" />
    <glyph glyph-name="S" unicode="S" horiz-adv-x="1345" 
d="M684 -29q-213 0 -362.5 106t-210.5 290l151 67q57 -151 166 -227t264 -76q162 0 258.5 66t96.5 184q0 77 -33.5 129t-114.5 96t-233 92q-105 32 -174.5 58.5t-137.5 64t-106.5 80.5t-62 104t-23.5 138q0 174 136 287.5t351 113.5q206 0 339 -92.5t196 -247.5l-144 -80
q-60 134 -157.5 195t-235.5 61q-142 0 -224.5 -62t-82.5 -161q0 -49 14 -85.5t40 -65.5t77.5 -55.5t111 -49t156.5 -53.5q98 -30 168.5 -58.5t133.5 -67.5t101.5 -84.5t60.5 -107t22 -137.5q0 -188 -150 -305t-391 -117z" />
    <glyph glyph-name="T" unicode="T" horiz-adv-x="1275" 
d="M547 0v1350h-481v166h1144v-166h-483v-1350h-180z" />
    <glyph glyph-name="U" unicode="U" horiz-adv-x="1468" 
d="M735 -27q-142 0 -251.5 41.5t-176.5 117t-101 174t-34 218.5v992h180v-967q0 -191 95.5 -302.5t289.5 -111.5q192 0 286.5 109t94.5 301v971h178v-988q0 -119 -35.5 -219.5t-104 -176t-176.5 -117.5t-245 -42z" />
    <glyph glyph-name="V" unicode="V" horiz-adv-x="1363" 
d="M598 -6l-532 1522h184l434 -1280h4l436 1280h174l-532 -1522h-168z" />
    <glyph glyph-name="W" unicode="W" horiz-adv-x="1906" 
d="M477 0l-403 1516h182l223 -879q66 -250 88 -371h4q30 160 86 369l211 881h183l217 -887q8 -33 23.5 -95l24 -96t19 -82.5t17.5 -89.5h4q21 102 84 357l221 893h172l-401 -1516h-166l-305 1268h-5l-313 -1268h-166z" />
    <glyph glyph-name="X" unicode="X" horiz-adv-x="1372" 
d="M66 0l520 809l-457 707h207l358 -564l353 564h190l-453 -705l523 -811h-197l-428 668l-430 -668h-186z" />
    <glyph glyph-name="Y" unicode="Y" horiz-adv-x="1292" 
d="M555 0v664l-510 852h193l411 -699l410 699h188l-512 -852v-664h-180z" />
    <glyph glyph-name="Z" unicode="Z" horiz-adv-x="1290" 
d="M82 0v127l887 1237h-830v152h1051v-132l-881 -1234h881v-150h-1108z" />
    <glyph glyph-name="bracketleft" unicode="[" horiz-adv-x="817" 
d="M172 -410v1926h555v-132h-377v-1663h377v-131h-555z" />
    <glyph glyph-name="backslash" unicode="\" horiz-adv-x="1138" 
d="M918 0l-881 1516h184l881 -1516h-184z" />
    <glyph glyph-name="bracketright" unicode="]" horiz-adv-x="817" 
d="M88 -410v131h377v1661h-377v134h555v-1926h-555z" />
    <glyph glyph-name="asciicircum" unicode="^" horiz-adv-x="1060" 
d="M201 1192l264 330h129l264 -330h-106l-224 192l-221 -192h-106z" />
    <glyph glyph-name="underscore" unicode="_" horiz-adv-x="1024" 
d="M0 -270v137h1024v-137h-1024z" />
    <glyph glyph-name="grave" unicode="`" horiz-adv-x="1024" 
d="M569 1198l-290 324h215l192 -324h-117z" />
    <glyph glyph-name="a" unicode="a" horiz-adv-x="1132" 
d="M395 -16q-141 0 -223 71.5t-82 200.5q0 85 38 153t121.5 126t224.5 101t339 71v49q0 200 -205 200q-114 0 -208 -43t-183 -120l-92 110q218 201 502 201q360 0 360 -361v-477q0 -192 31 -266h-180q-25 80 -25 150q-178 -166 -418 -166zM446 123q206 0 367 158v303
q-202 -32 -325 -77.5t-173.5 -99.5t-50.5 -124q0 -77 48 -118.5t134 -41.5z" />
    <glyph glyph-name="b" unicode="b" horiz-adv-x="1226" 
d="M670 -16q-189 0 -338 155v-139h-176v1516h176v-586q155 174 356 174q195 0 317.5 -144.5t122.5 -416.5q0 -273 -126 -416t-332 -143zM645 127q146 0 226.5 102.5t80.5 311.5q0 200 -84.5 305.5t-220.5 105.5q-163 0 -315 -166v-495q145 -164 313 -164z" />
    <glyph glyph-name="c" unicode="c" horiz-adv-x="1097" 
d="M575 -23q-95 0 -181 36.5t-153 105.5t-107 178t-40 244q0 115 28.5 210t76.5 159.5t112 109t134.5 64.5t144.5 20q71 0 131.5 -16.5t104.5 -43.5t80.5 -67.5t61.5 -82.5t46 -93l-150 -62q-41 107 -108 161t-170 54q-61 0 -115 -22.5t-100 -69t-72.5 -129t-26.5 -192.5
q0 -196 85.5 -306t224.5 -110q104 0 171 49.5t119 167.5l146 -57q-45 -96 -100.5 -161t-143 -106t-199.5 -41z" />
    <glyph glyph-name="d" unicode="d" horiz-adv-x="1226" 
d="M537 -16q-196 0 -318.5 142t-122.5 413q0 273 127.5 419t333.5 146q95 0 183.5 -43.5t152.5 -116.5v572h176v-1250q0 -193 33 -266h-184q-25 73 -25 154q-73 -80 -158 -125t-198 -45zM580 129q161 0 313 166v496q-145 163 -311 163q-146 0 -228 -104.5t-82 -312.5
q0 -199 85.5 -303.5t222.5 -104.5z" />
    <glyph glyph-name="e" unicode="e" horiz-adv-x="1130" 
d="M584 -23q-98 0 -185 36t-155.5 104t-109 177.5t-40.5 246.5q0 114 29.5 209t78 159.5t112.5 109t132 65t138 20.5q98 0 179 -35t142 -104t95 -179.5t34 -253.5v-36h-764q4 -177 95.5 -276t230.5 -99q112 0 186.5 43t139.5 133l102 -90q-161 -230 -440 -230zM274 633h592
q-11 150 -82.5 236.5t-201.5 86.5q-117 0 -203.5 -82t-104.5 -241z" />
    <glyph glyph-name="f" unicode="f" horiz-adv-x="704" 
d="M240 0v936h-189v145h189v146q0 293 325 293q17 0 56 -3.5t45 -3.5v-143q-24 6 -76 6q-174 0 -174 -151v-144h237v-145h-237v-936h-176z" />
    <glyph glyph-name="g" unicode="g" horiz-adv-x="1177" 
d="M557 -416q-265 0 -393.5 70.5t-128.5 198.5q0 81 51.5 142t144.5 97q-92 44 -92 137q0 96 135 174q-79 52 -122 132t-43 180q0 170 123.5 279.5t316.5 109.5t319 -113q50 37 120.5 65.5t135.5 35.5v-156q-106 0 -194 -35q55 -77 55 -186q0 -173 -122.5 -279t-313.5 -106
q-83 0 -172 26q-76 -34 -76 -84q0 -34 32.5 -51t117.5 -24l221 -19q207 -14 310 -82.5t103 -197.5q0 -150 -143.5 -232t-384.5 -82zM551 459q125 0 197.5 67.5t72.5 184.5q0 120 -71.5 188t-200.5 68q-126 0 -199.5 -69.5t-73.5 -186.5q0 -116 75 -184t200 -68zM580 -283
q160 0 252 45t92 119q0 73 -66 108.5t-233 47.5l-205 14q-10 1 -31 3t-31 3q-77 -27 -118 -74t-41 -104q0 -83 91 -122.5t290 -39.5z" />
    <glyph glyph-name="h" unicode="h" horiz-adv-x="1204" 
d="M156 0v1516h178v-596q188 184 405 184q154 0 237 -84.5t83 -239.5v-780h-176v741q0 108 -48.5 159.5t-150.5 51.5q-92 0 -175.5 -44t-174.5 -130v-778h-178z" />
    <glyph glyph-name="i" unicode="i" horiz-adv-x="512" 
d="M164 1313v172h184v-172h-184zM168 0v1081h176v-1081h-176z" />
    <glyph glyph-name="j" unicode="j" horiz-adv-x="512" 
d="M164 1313v172h184v-172h-184zM94 -412q-43 0 -106 9v133q40 -9 69 -9q111 0 111 125v1235h176v-1247q0 -119 -56.5 -182.5t-193.5 -63.5z" />
    <glyph glyph-name="k" unicode="k" horiz-adv-x="1105" 
d="M156 0v1516h176v-975l483 540h201l-354 -387l393 -694h-189l-319 563l-215 -231v-332h-176z" />
    <glyph glyph-name="l" unicode="l" horiz-adv-x="512" 
d="M168 0v1516h176v-1516h-176z" />
    <glyph glyph-name="m" unicode="m" horiz-adv-x="1878" 
d="M156 0v1081h176v-163q186 186 389 186q129 0 198 -49.5t99 -141.5q195 191 399 191q160 0 237 -85.5t77 -238.5v-780h-177v741q0 110 -42.5 160.5t-145.5 50.5q-85 0 -163 -43.5t-171 -130.5v-778h-176v741q0 110 -42.5 160.5t-145.5 50.5q-84 0 -163 -43.5t-173 -130.5
v-778h-176z" />
    <glyph glyph-name="n" unicode="n" horiz-adv-x="1204" 
d="M156 0v1081h178v-161q188 184 405 184q154 0 237 -84.5t83 -239.5v-780h-176v741q0 108 -48.5 159.5t-150.5 51.5q-92 0 -175.5 -44t-174.5 -130v-778h-178z" />
    <glyph glyph-name="o" unicode="o" horiz-adv-x="1193" 
d="M598 -23q-100 0 -190 36.5t-160.5 105.5t-112 178t-41.5 244q0 136 41 245t111.5 177.5t160.5 104.5t191 36q80 0 153.5 -22.5t137 -68.5t110.5 -112t74 -158.5t27 -201.5q0 -135 -41 -244t-111 -178t-160 -105.5t-190 -36.5zM598 127q152 0 238 112.5t86 301.5
q0 115 -35.5 206.5t-110 148t-178.5 56.5q-153 0 -239.5 -112.5t-86.5 -298.5q0 -117 35 -209t110 -148.5t181 -56.5z" />
    <glyph glyph-name="p" unicode="p" horiz-adv-x="1226" 
d="M156 -410v1491h176v-149q157 172 356 172q195 0 317.5 -144.5t122.5 -416.5q0 -273 -126 -416t-332 -143q-189 0 -338 155v-549h-176zM645 127q146 0 226.5 102.5t80.5 311.5q0 200 -84.5 305.5t-220.5 105.5q-163 0 -315 -166v-495q145 -164 313 -164z" />
    <glyph glyph-name="q" unicode="q" horiz-adv-x="1226" 
d="M893 -410v564q-73 -80 -158 -125t-198 -45q-196 0 -318.5 142t-122.5 413q0 273 127.5 419t333.5 146q188 0 336 -158v135h176v-1491h-176zM580 129q161 0 313 166v496q-145 163 -311 163q-146 0 -228 -104.5t-82 -312.5q0 -199 85.5 -303.5t222.5 -104.5z" />
    <glyph glyph-name="r" unicode="r" horiz-adv-x="819" 
d="M156 0v1081h176v-200h4q143 223 418 223h22l-12 -164q-6 2 -51 2q-254 0 -381 -244v-698h-176z" />
    <glyph glyph-name="s" unicode="s" horiz-adv-x="1048" 
d="M520 -20q-141 0 -257 50.5t-185 133.5l106 106q139 -149 338 -149q126 0 193 43.5t67 126.5q0 77 -64 117t-214 75q-77 18 -129 35t-105 43.5t-83.5 58.5t-50 80t-19.5 109q0 127 103 211t276 84q135 0 233.5 -40t179.5 -116l-92 -117q-140 130 -313 130
q-111 0 -165 -41.5t-54 -104.5q0 -71 59 -107.5t197 -68.5q84 -20 138 -37t111 -44.5t89 -61t52.5 -84t20.5 -115.5q0 -151 -120.5 -234t-311.5 -83z" />
    <glyph glyph-name="t" unicode="t" horiz-adv-x="772" 
d="M535 -14q-166 0 -234 65.5t-68 210.5v674h-188v145h188v385h177v-385h280v-145h-280v-635q0 -90 36.5 -131t131.5 -41q59 0 110 14v-145q-62 -12 -153 -12z" />
    <glyph glyph-name="u" unicode="u" horiz-adv-x="1204" 
d="M465 -20q-155 0 -237.5 83.5t-82.5 237.5v780h177v-743q0 -108 48 -159.5t150 -51.5q93 0 175.5 44t174.5 130v780h179v-1081h-179v162q-186 -182 -405 -182z" />
    <glyph glyph-name="v" unicode="v" horiz-adv-x="1054" 
d="M438 -4l-397 1085h188l303 -876h5l299 876h176l-396 -1085h-178z" />
    <glyph glyph-name="w" unicode="w" horiz-adv-x="1540" 
d="M375 0l-330 1081h182l142 -508q58 -209 94 -360h4q47 193 94 362l137 506h154l141 -516q41 -144 90 -352h4q51 196 95 348l147 520h166l-330 -1081h-164l-229 846h-4l-231 -846h-162z" />
    <glyph glyph-name="x" unicode="x" horiz-adv-x="1060" 
d="M55 0l385 559l-358 522h192l265 -395l262 395h186l-360 -520l383 -561h-191l-291 430l-288 -430h-185z" />
    <glyph glyph-name="y" unicode="y" horiz-adv-x="1091" 
d="M217 -416q-112 0 -203 27l41 141q70 -18 160 -18q81 0 127.5 35.5t79.5 117.5l41 107l-418 1087h186l318 -874h4l317 874h179l-463 -1204q-30 -76 -60 -126.5t-72.5 -90t-100.5 -58t-136 -18.5z" />
    <glyph glyph-name="z" unicode="z" horiz-adv-x="1044" 
d="M80 0v106l633 832h-584v143h805v-110l-635 -830h666v-141h-885z" />
    <glyph glyph-name="braceleft" unicode="{" horiz-adv-x="800" 
d="M565 -410q-270 0 -270 283v369q0 75 -13 123t-43 75t-70 37t-101 10v131q61 0 101 10.5t69.5 37t43 75t13.5 123.5v369q0 283 270 283h158v-132h-90q-82 0 -121 -39t-39 -118v-377q0 -97 -21.5 -157.5t-56.5 -89t-96 -48.5v-4q61 -20 96 -48.5t56.5 -89t21.5 -157.5v-377
q0 -158 160 -158h90v-131h-158z" />
    <glyph glyph-name="bar" unicode="|" horiz-adv-x="727" 
d="M276 -410v1926h173v-1926h-173z" />
    <glyph glyph-name="braceright" unicode="}" horiz-adv-x="800" 
d="M78 -410v131h90q160 0 160 158v387q0 74 11 123.5t35.5 81t53 48.5t74.5 32v4q-46 15 -74.5 32t-53 48.5t-35.5 81t-11 123.5v387q0 81 -36.5 122.5t-117.5 41.5h-90l-6 125h168q138 0 199 -68t61 -205v-379q0 -75 13.5 -123.5t43 -75t69.5 -37t101 -10.5v-131
q-61 0 -101 -10t-70 -37t-43 -75t-13 -123v-379q0 -137 -61 -205t-199 -68h-168z" />
    <glyph glyph-name="asciitilde" unicode="~" horiz-adv-x="1040" 
d="M672 834q-51 0 -108 28.5t-107 57t-84 28.5q-45 0 -64.5 -25.5t-19.5 -84.5h-109q0 243 189 243q41 0 86 -18t77.5 -39t71 -39t66.5 -18q44 0 64 25.5t20 84.5h104q0 -243 -186 -243z" />
    <glyph glyph-name="nbspace" unicode="&#xa0;" horiz-adv-x="239" 
 />
    <glyph glyph-name="exclamdown" unicode="&#xa1;" horiz-adv-x="657" 
d="M221 1305v211h211v-211h-211zM217 0l51 1090h115l53 -1090h-219z" />
    <glyph glyph-name="cent" unicode="&#xa2;" horiz-adv-x="1101" 
d="M350 35q-116 66 -186 196t-70 310q0 141 43 252t115 177t158 100t180 34q39 0 57 -2l58 205h110l-63 -228q175 -63 264 -278l-144 -62q-61 153 -167 197l-222 -801q43 -14 99 -14q103 0 173.5 51.5t125.5 169.5l139 -57q-68 -146 -174.5 -227t-270.5 -81q-58 0 -124 17
l-72 -258h-113zM610 956h-24q-49 0 -94 -13t-87.5 -44.5t-73.5 -78t-50 -118t-19 -161.5q0 -247 135 -359z" />
    <glyph glyph-name="sterling" unicode="&#xa3;" horiz-adv-x="1277" 
d="M446 725h-266v131h193q-46 82 -70 151t-24 146q0 173 108.5 282t294.5 109q85 0 154 -22t114.5 -58.5t78 -87.5t49.5 -104t24 -113l-164 -24q-25 258 -256 258q-109 0 -169 -64.5t-60 -173.5q0 -49 18.5 -107.5t33 -87.5t54.5 -104h354v-131h-290q59 -131 59 -268
q0 -125 -35 -221q48 -39 76.5 -59t73.5 -39t86 -19q96 0 137 60.5t49 201.5h160q-2 -89 -20.5 -160.5t-55.5 -129t-101 -89t-151 -31.5q-89 0 -164 39.5t-155 108.5q-108 -148 -293 -148q-93 0 -163.5 56t-70.5 155q0 106 68 171t178 65q97 0 217 -82q6 47 6 106
q0 131 -78 283zM479 207q-106 92 -178 92q-53 0 -84 -30.5t-31 -82.5q0 -46 31.5 -74t79.5 -28q126 0 182 123z" />
    <glyph glyph-name="currency" unicode="&#xa4;" horiz-adv-x="1476" 
d="M283 842h-240v133h254q22 143 75 253.5t129 178.5t166 102.5t191 34.5q105 0 188 -30.5t141 -89t98 -134t67 -174.5l-162 -51q-19 66 -37.5 112.5t-45.5 88.5t-60.5 66.5t-80.5 39t-108 14.5q-148 0 -250.5 -103t-136.5 -308h438v-133h-452q-2 -23 -2 -72q0 -19 1 -53.5
t1 -50.5h452v-136h-436q68 -403 389 -403q141 0 221.5 83t126.5 259l162 -47q-58 -212 -185.5 -331.5t-326.5 -119.5q-218 0 -367.5 141t-193.5 418h-256v136h240q-2 33 -2 98q0 53 2 78z" />
    <glyph glyph-name="yen" unicode="&#xa5;" horiz-adv-x="1288" 
d="M553 0v240h-387v131h387v180h-387v131h381l-498 834h193l405 -689l404 689h188l-502 -834h387v-131h-391v-180h391v-131h-391v-240h-180z" />
    <glyph glyph-name="brokenbar" unicode="&#xa6;" horiz-adv-x="727" 
d="M276 678v838h173v-838h-173zM276 -410v838h173v-838h-173z" />
    <glyph glyph-name="section" unicode="&#xa7;" horiz-adv-x="1105" 
d="M553 -410q-98 0 -172.5 23t-121 66t-74 93t-44.5 115l144 50q30 -105 87.5 -156t174.5 -51q108 0 157.5 48.5t49.5 123.5q0 71 -54 129t-198 141q-75 44 -122 73.5t-96.5 65t-77.5 65t-52 65t-33.5 73t-9.5 82.5q0 59 22 112t60 94t79 71.5t88 54.5q-105 76 -145.5 142.5
t-40.5 154.5q0 131 103 225t276 94q101 0 177 -23t123 -66t74.5 -93t43.5 -115l-148 -53q-29 104 -92 158.5t-172 54.5q-110 0 -163.5 -50t-53.5 -124q0 -70 56.5 -128t203.5 -142q113 -66 176 -108t117.5 -93.5t76 -103.5t21.5 -119q0 -112 -72 -197t-176 -137
q103 -75 140 -140t37 -155q0 -132 -98.5 -226t-270.5 -94zM635 279q203 93 203 235q0 82 -62 141.5t-266 180.5q-7 3 -41 20q-95 -44 -148 -104.5t-53 -130.5q0 -82 62 -141.5t266 -180.5q20 -8 39 -20z" />
    <glyph glyph-name="dieresis" unicode="&#xa8;" horiz-adv-x="1044" 
d="M616 1194v192h183v-192h-183zM244 1194v192h180v-192h-180z" />
    <glyph glyph-name="copyright" unicode="&#xa9;" horiz-adv-x="1769" 
d="M885 -29q-162 0 -307.5 62t-249.5 167t-165 250t-61 306q0 162 61.5 307.5t165.5 251t250 167.5t308 62q214 0 393.5 -104.5t283 -284.5t103.5 -395q0 -161 -61.5 -307.5t-165.5 -252t-249 -167.5t-306 -62zM887 66q187 0 343 92t245.5 250.5t89.5 347.5q0 190 -90 349.5
t-246.5 252t-343.5 92.5q-188 0 -344.5 -92t-246 -250.5t-89.5 -347.5q0 -190 90 -349.5t247 -252t345 -92.5zM881 317q-163 0 -262 124t-99 329q0 198 98.5 321t264.5 123q252 0 321 -272l-110 -29q-29 100 -78 148.5t-133 48.5q-108 0 -174 -93.5t-66 -246.5
q0 -160 65 -252t177 -92q164 0 217 209q105 -29 115 -29q-36 -139 -120 -214t-216 -75z" />
    <glyph glyph-name="ordfeminine" unicode="&#xaa;" horiz-adv-x="862" 
d="M322 752q-102 0 -162 51.5t-60 142.5q0 81 47.5 140.5t161 105t297.5 70.5v32q0 66 -35 102t-102 36q-81 0 -144.5 -28t-125.5 -85l-76 76q75 71 159.5 108t200.5 37q258 0 258 -254v-330q0 -127 27 -188h-143q-16 54 -19 102q-131 -118 -284 -118zM356 862
q132 0 250 109v205q-108 -16 -182.5 -38.5t-114.5 -50.5t-56.5 -57t-16.5 -65q0 -50 32 -76.5t88 -26.5z" />
    <glyph glyph-name="guillemotleft" unicode="&#xab;" horiz-adv-x="1110" 
d="M825 0l-313 543l313 538h176l-305 -538l305 -543h-176zM393 0l-309 543l309 538h178l-301 -538l301 -543h-178z" />
    <glyph glyph-name="registered" unicode="&#xae;" horiz-adv-x="1769" 
d="M885 -29q-162 0 -307.5 62t-249.5 167t-165 250t-61 306q0 162 61.5 307.5t165.5 251t250 167.5t308 62q214 0 393.5 -104.5t283 -284.5t103.5 -395q0 -161 -61.5 -307.5t-165.5 -252t-249 -167.5t-306 -62zM887 66q187 0 343 92t245.5 250.5t89.5 347.5q0 190 -90 349.5
t-246.5 252t-343.5 92.5q-188 0 -344.5 -92t-246 -250.5t-89.5 -347.5q0 -190 90 -349.5t247 -252t345 -92.5zM596 342v862h303q148 0 228.5 -63.5t80.5 -182.5q0 -189 -190 -237l205 -379h-131l-195 365h-180v-365h-121zM717 803h176q97 0 145.5 34.5t48.5 114.5
q0 76 -49.5 110t-146.5 34h-174v-293z" />
    <glyph glyph-name="macron" unicode="&#xaf;" horiz-adv-x="1024" 
d="M213 1266v141h598v-141h-598z" />
    <glyph glyph-name="degree" unicode="&#xb0;" horiz-adv-x="829" 
d="M416 954q-129 0 -214 84t-85 211t85 210t214 83q128 0 212.5 -83t84.5 -210t-84.5 -211t-212.5 -84zM416 1059q77 0 127.5 53t50.5 137t-50.5 136.5t-127.5 52.5q-79 0 -129.5 -52.5t-50.5 -136.5t50.5 -137t129.5 -53z" />
    <glyph glyph-name="twosuperior" unicode="&#xb2;" horiz-adv-x="925" 
d="M133 565v41q0 113 66 213.5t243 212.5q101 66 142 113.5t41 111.5q0 67 -40 107.5t-112 40.5q-132 0 -217 -162l-115 68q115 225 336 225q138 0 217.5 -75.5t79.5 -198.5q0 -97 -54.5 -172t-191.5 -158q-205 -125 -225 -236h475v-131h-645z" />
    <glyph glyph-name="threesuperior" unicode="&#xb3;" horiz-adv-x="925" 
d="M459 547q-110 0 -200.5 50.5t-149.5 147.5l104 80q93 -147 240 -147q90 0 139 44t49 116q0 88 -60 131t-196 43h-57v114h63q122 0 177 36t55 110q0 61 -40 97t-120 36q-119 0 -219 -115l-97 88q136 158 324 158q149 0 226 -71t77 -179q0 -76 -40 -132t-118 -83
q181 -56 181 -233q0 -130 -92 -210.5t-246 -80.5z" />
    <glyph glyph-name="acute" unicode="&#xb4;" horiz-adv-x="1024" 
d="M338 1198l192 324h215l-290 -324h-117z" />
    <glyph glyph-name="mu" unicode="&#xb5;" horiz-adv-x="1214" 
d="M156 -410v1491h176v-743q0 -107 48.5 -160t151.5 -53q91 0 174 44t177 130v782h176v-1081h-176v174q-182 -178 -363 -188q-131 -3 -188 59v-455h-176z" />
    <glyph glyph-name="paragraph" unicode="&#xb6;" horiz-adv-x="1275" 
d="M616 -410v1092q-243 5 -370 109.5t-127 304.5q0 185 124 302.5t345 117.5h514v-1926h-139v1782h-205v-1782h-142z" />
    <glyph glyph-name="periodcentered" unicode="&#xb7;" horiz-adv-x="559" 
d="M172 551v215h215v-215h-215z" />
    <glyph glyph-name="cedilla" unicode="&#xb8;" horiz-adv-x="1024" 
d="M518 -401q-150 0 -262 73l41 68q92 -62 205 -62q141 0 141 93q0 69 -82 69q-50 0 -102 -41l-64 31l54 170h96l-31 -106q48 30 115 30q60 0 102.5 -37t42.5 -102q0 -92 -71.5 -139t-184.5 -47z" />
    <glyph glyph-name="onesuperior" unicode="&#xb9;" horiz-adv-x="831" 
d="M188 563v129h172v664q-73 -31 -167 -31v129q129 3 182 59h135v-821h154v-129h-476z" />
    <glyph glyph-name="ordmasculine" unicode="&#xba;" horiz-adv-x="892" 
d="M446 752q-72 0 -135.5 25.5t-113.5 73t-79.5 124t-29.5 170.5q0 97 29.5 173.5t79.5 124t113.5 72.5t135.5 25q151 0 255 -103t104 -292q0 -94 -29.5 -170.5t-79.5 -124t-114 -73t-136 -25.5zM446 860q103 0 162.5 80.5t59.5 206.5q0 122 -57.5 204.5t-164.5 82.5
q-103 0 -162 -80t-59 -207q0 -124 56.5 -205.5t164.5 -81.5z" />
    <glyph glyph-name="guillemotright" unicode="&#xbb;" horiz-adv-x="1110" 
d="M539 0l303 543l-303 538h176l311 -538l-311 -543h-176zM109 0l303 543l-303 538h178l311 -538l-311 -543h-178z" />
    <glyph glyph-name="onequarter" unicode="&#xbc;" horiz-adv-x="1961" 
d="M188 563v129h172v664q-73 -31 -167 -31v129q129 3 182 59h135v-821h154v-129h-476zM471 0l907 1516h160l-907 -1516h-160zM1538 0v223h-436v99l424 632h162v-604h153v-127h-153v-223h-150zM1270 350h270v408z" />
    <glyph glyph-name="onehalf" unicode="&#xbd;" horiz-adv-x="2037" 
d="M188 563v129h172v664q-73 -31 -167 -31v129q129 3 182 59h135v-821h154v-129h-476zM471 0l907 1516h160l-907 -1516h-160zM1245 0v43q0 113 66 212.5t243 211.5q101 66 142 113.5t41 111.5q0 68 -40.5 108t-113.5 40q-132 0 -217 -162l-113 70q116 223 334 223
q138 0 217.5 -75.5t79.5 -199.5q0 -96 -54.5 -171t-191.5 -156q-207 -129 -223 -238h475v-131h-645z" />
    <glyph glyph-name="threequarters" unicode="&#xbe;" horiz-adv-x="2021" 
d="M459 547q-110 0 -200.5 50.5t-149.5 147.5l104 80q93 -147 240 -147q90 0 139 44t49 116q0 88 -60 131t-196 43h-57v114h63q122 0 177 36t55 110q0 61 -40 97t-120 36q-119 0 -219 -115l-97 88q136 158 324 158q149 0 226 -71t77 -179q0 -76 -40 -132t-118 -83
q181 -56 181 -233q0 -130 -92 -210.5t-246 -80.5zM532 0l906 1516h159l-905 -1516h-160zM1597 0v223h-436v99l424 632h162v-604h154v-127h-154v-223h-150zM1329 350h270v408z" />
    <glyph glyph-name="questiondown" unicode="&#xbf;" horiz-adv-x="1124" 
d="M512 1305v211h209v-211h-209zM551 -29q-206 0 -327.5 103t-121.5 268q0 71 19 128.5t57.5 101.5t79.5 75.5t102 67.5q45 26 74.5 47t51 47t32.5 48.5t17.5 61.5t8 75t1.5 98h143q6 -65 6 -138q0 -108 -44.5 -181t-143.5 -132q-67 -40 -102.5 -65.5t-67 -59.5t-43.5 -72.5
t-12 -91.5q0 -103 75 -162t207 -59q216 0 365 197l121 -101q-96 -121 -214.5 -188.5t-283.5 -67.5z" />
    <glyph glyph-name="Agrave" unicode="&#xc0;" horiz-adv-x="1392" 
d="M66 0l536 1522h189l536 -1522h-186l-150 434h-602l-149 -434h-174zM444 592h492l-242 711h-4zM645 1610l-290 324h215l192 -324h-117z" />
    <glyph glyph-name="Aacute" unicode="&#xc1;" horiz-adv-x="1392" 
d="M66 0l536 1522h189l536 -1522h-186l-150 434h-602l-149 -434h-174zM444 592h492l-242 711h-4zM633 1610l192 324h215l-290 -324h-117z" />
    <glyph glyph-name="Acircumflex" unicode="&#xc2;" horiz-adv-x="1392" 
d="M66 0l536 1522h189l536 -1522h-186l-150 434h-602l-149 -434h-174zM444 592h492l-242 711h-4zM367 1604l264 330h129l264 -330h-106l-224 192l-221 -192h-106z" />
    <glyph glyph-name="Atilde" unicode="&#xc3;" horiz-adv-x="1392" 
d="M66 0l536 1522h189l536 -1522h-186l-150 434h-602l-149 -434h-174zM444 592h492l-242 711h-4zM850 1600q-41 0 -86 18t-77.5 39.5t-70 39.5t-65.5 18q-45 0 -64.5 -25.5t-19.5 -85.5h-109q0 244 189 244q51 0 108.5 -29t107.5 -57.5t85 -28.5q43 0 63.5 26t20.5 85h104
q0 -244 -186 -244z" />
    <glyph glyph-name="Adieresis" unicode="&#xc4;" horiz-adv-x="1392" 
d="M66 0l536 1522h189l536 -1522h-186l-150 434h-602l-149 -434h-174zM444 592h492l-242 711h-4zM790 1606v192h183v-192h-183zM418 1606v192h180v-192h-180z" />
    <glyph glyph-name="Aring" unicode="&#xc5;" horiz-adv-x="1392" 
d="M807 1477l520 -1477h-186l-150 434h-602l-149 -434h-174l520 1477q-39 25 -61.5 67t-22.5 94q0 82 55 136.5t139 54.5t139.5 -54.5t55.5 -136.5q0 -52 -22.5 -94t-61.5 -67zM696 1526q46 0 76.5 31.5t30.5 80.5q0 47 -30.5 79t-76.5 32t-76 -32t-30 -79q0 -49 30 -80.5
t76 -31.5zM444 592h492l-242 711h-4z" />
    <glyph glyph-name="AE" unicode="&#xc6;" horiz-adv-x="2068" 
d="M51 0l862 1516h1022v-166h-747v-473h555v-162h-555v-551h790v-164h-968v467h-512l-265 -467h-182zM588 627h422v741h-2z" />
    <glyph glyph-name="Ccedilla" unicode="&#xc7;" horiz-adv-x="1443" 
d="M758 -401q-152 0 -264 73l43 68q92 -62 202 -62q142 0 142 93q0 69 -82 69q-51 0 -103 -41l-61 31l43 145q-259 28 -412 238.5t-153 550.5q0 231 81.5 409t227.5 274.5t334 96.5q444 0 561 -465l-172 -47q-52 181 -142 270t-249 89q-211 0 -335 -171t-124 -454
q0 -299 125 -471t338 -172q314 0 411 379l170 -39q-56 -228 -198 -357t-365 -135l-24 -77q48 30 114 30q62 0 104 -37t42 -102q0 -92 -71.5 -139t-182.5 -47z" />
    <glyph glyph-name="Egrave" unicode="&#xc8;" horiz-adv-x="1247" 
d="M186 0v1516h930v-166h-749v-473h557v-162h-557v-551h792v-164h-973zM641 1610l-290 324h215l192 -324h-117z" />
    <glyph glyph-name="Eacute" unicode="&#xc9;" horiz-adv-x="1247" 
d="M186 0v1516h930v-166h-749v-473h557v-162h-557v-551h792v-164h-973zM545 1610l192 324h215l-290 -324h-117z" />
    <glyph glyph-name="Ecircumflex" unicode="&#xca;" horiz-adv-x="1247" 
d="M186 0v1516h930v-166h-749v-473h557v-162h-557v-551h792v-164h-973zM322 1604l264 330h129l264 -330h-106l-224 192l-221 -192h-106z" />
    <glyph glyph-name="Edieresis" unicode="&#xcb;" horiz-adv-x="1247" 
d="M186 0v1516h930v-166h-749v-473h557v-162h-557v-551h792v-164h-973zM755 1606v192h183v-192h-183zM383 1606v192h180v-192h-180z" />
    <glyph glyph-name="Igrave" unicode="&#xcc;" horiz-adv-x="593" 
d="M207 0v1516h180v-1516h-180zM258 1610l-290 324h215l192 -324h-117z" />
    <glyph glyph-name="Iacute" unicode="&#xcd;" horiz-adv-x="593" 
d="M207 0v1516h180v-1516h-180zM238 1610l192 324h215l-290 -324h-117z" />
    <glyph glyph-name="Icircumflex" unicode="&#xce;" horiz-adv-x="593" 
d="M207 0v1516h180v-1516h-180zM-32 1604l264 330h129l264 -330h-106l-224 192l-221 -192h-106z" />
    <glyph glyph-name="Idieresis" unicode="&#xcf;" horiz-adv-x="593" 
d="M207 0v1516h180v-1516h-180zM391 1606v192h183v-192h-183zM19 1606v192h180v-192h-180z" />
    <glyph glyph-name="Eth" unicode="&#xd0;" horiz-adv-x="1464" 
d="M186 0v721h-163v147h163v648h400q371 0 567.5 -189.5t196.5 -568.5q0 -375 -198.5 -566.5t-565.5 -191.5h-400zM367 162h241q281 0 421 144.5t140 455.5q0 302 -142 445t-423 143h-237v-482h323v-147h-323v-559z" />
    <glyph glyph-name="Ntilde" unicode="&#xd1;" 
d="M186 0v1516h191l797 -1199h4v1199h170v-1516h-162l-826 1231h-4v-1231h-170zM936 1600q-41 0 -86 18t-77.5 39.5t-70 39.5t-65.5 18q-45 0 -64.5 -25.5t-19.5 -85.5h-109q0 244 189 244q51 0 108.5 -29t107.5 -57.5t85 -28.5q43 0 63.5 26t20.5 85h104q0 -244 -186 -244z
" />
    <glyph glyph-name="Ograve" unicode="&#xd2;" 
d="M768 -29q-140 0 -260.5 55t-208 155t-137 249t-49.5 328t49.5 327.5t137 248.5t208 155t260.5 55t260 -55t206.5 -155t135.5 -248.5t49 -327.5t-49 -327.5t-135.5 -249t-206.5 -155.5t-260 -55zM768 133q210 0 340.5 167t130.5 458q0 290 -130.5 456t-340.5 166
q-213 0 -343 -165.5t-130 -456.5q0 -292 130 -458.5t343 -166.5zM733 1610l-290 324h215l192 -324h-117z" />
    <glyph glyph-name="Oacute" unicode="&#xd3;" 
d="M768 -29q-140 0 -260.5 55t-208 155t-137 249t-49.5 328t49.5 327.5t137 248.5t208 155t260.5 55t260 -55t206.5 -155t135.5 -248.5t49 -327.5t-49 -327.5t-135.5 -249t-206.5 -155.5t-260 -55zM768 133q210 0 340.5 167t130.5 458q0 290 -130.5 456t-340.5 166
q-213 0 -343 -165.5t-130 -456.5q0 -292 130 -458.5t343 -166.5zM676 1610l192 324h215l-290 -324h-117z" />
    <glyph glyph-name="Ocircumflex" unicode="&#xd4;" 
d="M768 -29q-140 0 -260.5 55t-208 155t-137 249t-49.5 328t49.5 327.5t137 248.5t208 155t260.5 55t260 -55t206.5 -155t135.5 -248.5t49 -327.5t-49 -327.5t-135.5 -249t-206.5 -155.5t-260 -55zM768 133q210 0 340.5 167t130.5 458q0 290 -130.5 456t-340.5 166
q-213 0 -343 -165.5t-130 -456.5q0 -292 130 -458.5t343 -166.5zM437 1604l264 330h129l264 -330h-106l-224 192l-221 -192h-106z" />
    <glyph glyph-name="Otilde" unicode="&#xd5;" 
d="M768 -29q-140 0 -260.5 55t-208 155t-137 249t-49.5 328t49.5 327.5t137 248.5t208 155t260.5 55t260 -55t206.5 -155t135.5 -248.5t49 -327.5t-49 -327.5t-135.5 -249t-206.5 -155.5t-260 -55zM768 133q210 0 340.5 167t130.5 458q0 290 -130.5 456t-340.5 166
q-213 0 -343 -165.5t-130 -456.5q0 -292 130 -458.5t343 -166.5zM918 1600q-41 0 -86 18t-77.5 39.5t-70 39.5t-65.5 18q-45 0 -64.5 -25.5t-19.5 -85.5h-109q0 244 189 244q51 0 108.5 -29t107.5 -57.5t85 -28.5q43 0 63.5 26t20.5 85h104q0 -244 -186 -244z" />
    <glyph glyph-name="Odieresis" unicode="&#xd6;" 
d="M768 -29q-140 0 -260.5 55t-208 155t-137 249t-49.5 328t49.5 327.5t137 248.5t208 155t260.5 55t260 -55t206.5 -155t135.5 -248.5t49 -327.5t-49 -327.5t-135.5 -249t-206.5 -155.5t-260 -55zM768 133q210 0 340.5 167t130.5 458q0 290 -130.5 456t-340.5 166
q-213 0 -343 -165.5t-130 -456.5q0 -292 130 -458.5t343 -166.5zM860 1606v192h183v-192h-183zM488 1606v192h180v-192h-180z" />
    <glyph glyph-name="multiply" unicode="&#xd7;" horiz-adv-x="1306" 
d="M305 199l-104 106l346 346l-346 346l104 105l346 -348l346 348l105 -105l-346 -346l348 -346l-105 -104l-346 348z" />
    <glyph glyph-name="Oslash" unicode="&#xd8;" 
d="M1266 1294q153 -212 153 -536q0 -179 -49 -327.5t-135.5 -249t-206.5 -155.5t-260 -55q-240 0 -416 156l-133 -168l-100 74l149 188q-155 210 -155 537q0 179 49.5 327.5t137 248.5t208 155t260.5 55q243 0 412 -155l135 167l98 -73zM383 356l694 897q-122 131 -309 131
q-213 0 -345 -167.5t-132 -458.5q0 -243 92 -402zM1149 1157l-696 -895q127 -133 315 -133q211 0 342 169t131 460q0 240 -92 399z" />
    <glyph glyph-name="Ugrave" unicode="&#xd9;" horiz-adv-x="1468" 
d="M735 -27q-142 0 -251.5 41.5t-176.5 117t-101 174t-34 218.5v992h180v-967q0 -191 95.5 -302.5t289.5 -111.5q192 0 286.5 109t94.5 301v971h178v-988q0 -119 -35.5 -219.5t-104 -176t-176.5 -117.5t-245 -42zM712 1610l-290 324h215l192 -324h-117z" />
    <glyph glyph-name="Uacute" unicode="&#xda;" horiz-adv-x="1468" 
d="M735 -27q-142 0 -251.5 41.5t-176.5 117t-101 174t-34 218.5v992h180v-967q0 -191 95.5 -302.5t289.5 -111.5q192 0 286.5 109t94.5 301v971h178v-988q0 -119 -35.5 -219.5t-104 -176t-176.5 -117.5t-245 -42zM625 1610l192 324h215l-290 -324h-117z" />
    <glyph glyph-name="Ucircumflex" unicode="&#xdb;" horiz-adv-x="1468" 
d="M735 -27q-142 0 -251.5 41.5t-176.5 117t-101 174t-34 218.5v992h180v-967q0 -191 95.5 -302.5t289.5 -111.5q192 0 286.5 109t94.5 301v971h178v-988q0 -119 -35.5 -219.5t-104 -176t-176.5 -117.5t-245 -42zM404 1604l264 330h129l264 -330h-106l-224 192l-221 -192
h-106z" />
    <glyph glyph-name="Udieresis" unicode="&#xdc;" horiz-adv-x="1468" 
d="M735 -27q-142 0 -251.5 41.5t-176.5 117t-101 174t-34 218.5v992h180v-967q0 -191 95.5 -302.5t289.5 -111.5q192 0 286.5 109t94.5 301v971h178v-988q0 -119 -35.5 -219.5t-104 -176t-176.5 -117.5t-245 -42zM827 1606v192h183v-192h-183zM455 1606v192h180v-192h-180z
" />
    <glyph glyph-name="Yacute" unicode="&#xdd;" horiz-adv-x="1292" 
d="M555 0v664l-510 852h193l411 -699l410 699h188l-512 -852v-664h-180zM477 1626l192 324h215l-290 -324h-117z" />
    <glyph glyph-name="Thorn" unicode="&#xde;" horiz-adv-x="1337" 
d="M186 0v1516h181v-277h331q256 -2 402.5 -108.5t146.5 -323.5q0 -119 -42.5 -207t-120.5 -140t-177 -77t-221 -25h-319v-358h-181zM367 522h327q188 0 279.5 65t91.5 214q0 143 -92 206.5t-281 63.5h-325v-549z" />
    <glyph glyph-name="germandbls" unicode="&#xdf;" horiz-adv-x="1282" 
d="M782 -23q-214 0 -325 123l96 107q94 -88 227 -88q110 0 177 80.5t67 216.5q0 179 -120 258.5t-355 89.5v133q173 1 254.5 69t81.5 181q0 105 -72 162t-199 57q-282 0 -282 -313v-1053h-176v1044q0 228 123 350t339 122q200 0 317.5 -94.5t117.5 -264.5q0 -117 -70.5 -199
t-194.5 -116q84 -11 153.5 -40t127 -78t89.5 -125.5t32 -174.5q0 -205 -110 -326t-298 -121z" />
    <glyph glyph-name="agrave" unicode="&#xe0;" horiz-adv-x="1132" 
d="M395 -16q-141 0 -223 71.5t-82 200.5q0 85 38 153t121.5 126t224.5 101t339 71v49q0 200 -205 200q-114 0 -208 -43t-183 -120l-92 110q218 201 502 201q360 0 360 -361v-477q0 -192 31 -266h-180q-25 80 -25 150q-178 -166 -418 -166zM446 123q206 0 367 158v303
q-202 -32 -325 -77.5t-173.5 -99.5t-50.5 -124q0 -77 48 -118.5t134 -41.5zM565 1198l-290 324h215l192 -324h-117z" />
    <glyph glyph-name="aacute" unicode="&#xe1;" horiz-adv-x="1132" 
d="M395 -16q-141 0 -223 71.5t-82 200.5q0 85 38 153t121.5 126t224.5 101t339 71v49q0 200 -205 200q-114 0 -208 -43t-183 -120l-92 110q218 201 502 201q360 0 360 -361v-477q0 -192 31 -266h-180q-25 80 -25 150q-178 -166 -418 -166zM446 123q206 0 367 158v303
q-202 -32 -325 -77.5t-173.5 -99.5t-50.5 -124q0 -77 48 -118.5t134 -41.5zM485 1198l192 324h215l-290 -324h-117z" />
    <glyph glyph-name="acircumflex" unicode="&#xe2;" horiz-adv-x="1132" 
d="M395 -16q-141 0 -223 71.5t-82 200.5q0 85 38 153t121.5 126t224.5 101t339 71v49q0 200 -205 200q-114 0 -208 -43t-183 -120l-92 110q218 201 502 201q360 0 360 -361v-477q0 -192 31 -266h-180q-25 80 -25 150q-178 -166 -418 -166zM446 123q206 0 367 158v303
q-202 -32 -325 -77.5t-173.5 -99.5t-50.5 -124q0 -77 48 -118.5t134 -41.5zM250 1192l264 330h129l264 -330h-106l-224 192l-221 -192h-106z" />
    <glyph glyph-name="atilde" unicode="&#xe3;" horiz-adv-x="1132" 
d="M395 -16q-141 0 -223 71.5t-82 200.5q0 85 38 153t121.5 126t224.5 101t339 71v49q0 200 -205 200q-114 0 -208 -43t-183 -120l-92 110q218 201 502 201q360 0 360 -361v-477q0 -192 31 -266h-180q-25 80 -25 150q-178 -166 -418 -166zM446 123q206 0 367 158v303
q-202 -32 -325 -77.5t-173.5 -99.5t-50.5 -124q0 -77 48 -118.5t134 -41.5zM727 1188q-41 0 -86 18t-77.5 39.5t-70 39.5t-65.5 18q-45 0 -64.5 -25.5t-19.5 -85.5h-109q0 244 189 244q51 0 108.5 -29t107.5 -57.5t85 -28.5q43 0 63.5 26t20.5 85h104q0 -244 -186 -244z" />
    <glyph glyph-name="adieresis" unicode="&#xe4;" horiz-adv-x="1132" 
d="M395 -16q-141 0 -223 71.5t-82 200.5q0 85 38 153t121.5 126t224.5 101t339 71v49q0 200 -205 200q-114 0 -208 -43t-183 -120l-92 110q218 201 502 201q360 0 360 -361v-477q0 -192 31 -266h-180q-25 80 -25 150q-178 -166 -418 -166zM446 123q206 0 367 158v303
q-202 -32 -325 -77.5t-173.5 -99.5t-50.5 -124q0 -77 48 -118.5t134 -41.5zM684 1194v192h183v-192h-183zM312 1194v192h180v-192h-180z" />
    <glyph glyph-name="aring" unicode="&#xe5;" horiz-adv-x="1132" 
d="M395 -16q-141 0 -223 71.5t-82 200.5q0 85 38 153t121.5 126t224.5 101t339 71v49q0 200 -205 200q-114 0 -208 -43t-183 -120l-92 110q218 201 502 201q360 0 360 -361v-477q0 -192 31 -266h-180q-25 80 -25 150q-178 -166 -418 -166zM446 123q206 0 367 158v303
q-202 -32 -325 -77.5t-173.5 -99.5t-50.5 -124q0 -77 48 -118.5t134 -41.5zM592 1182q-85 0 -140 55t-55 139q0 82 55.5 136.5t139.5 54.5t139.5 -54.5t55.5 -136.5q0 -84 -55 -139t-140 -55zM592 1264q46 0 76 31.5t30 80.5q0 47 -30 79t-76 32t-76.5 -32t-30.5 -79
q0 -49 30.5 -80.5t76.5 -31.5z" />
    <glyph glyph-name="ae" unicode="&#xe6;" horiz-adv-x="1830" 
d="M393 -23q-141 0 -223 72.5t-82 200.5q0 85 38 154t121.5 128t224.5 103t339 72v49q0 200 -205 200q-114 0 -208 -43t-183 -120l-90 110q218 201 500 201q251 0 307 -207q53 91 147.5 149t204.5 58q95 0 175.5 -35t142.5 -103.5t97.5 -179.5t35.5 -254v-30h-762
q4 -182 94.5 -281.5t230.5 -99.5q110 0 184.5 43t139.5 133l102 -90q-161 -230 -440 -230q-129 0 -233.5 57.5t-167.5 172.5q-111 -116 -227 -173t-263 -57zM977 633h590q-11 150 -83 236.5t-202 86.5q-116 0 -201.5 -82t-103.5 -241zM444 119q215 0 396 190q-31 91 -31 205
q0 60 2 74q-151 -25 -259 -58t-170.5 -73t-91 -84.5t-28.5 -96.5q0 -76 48 -116.5t134 -40.5z" />
    <glyph glyph-name="ccedilla" unicode="&#xe7;" horiz-adv-x="1097" 
d="M575 -401q-152 0 -264 73l43 68q92 -62 203 -62q141 0 141 93q0 69 -82 69q-50 0 -102 -41l-61 31l45 156q-174 26 -289 171t-115 384q0 115 28.5 210t76.5 159.5t112 109t134.5 64.5t144.5 20q71 0 131.5 -16.5t104.5 -43.5t80.5 -67.5t61.5 -82.5t46 -93l-150 -62
q-44 116 -109.5 171t-168.5 55q-61 0 -115.5 -24t-100 -73t-72 -133t-26.5 -194q0 -197 86 -312.5t224 -115.5q101 0 169 54.5t121 174.5l146 -57q-66 -142 -166 -220.5t-256 -84.5l-27 -86q48 30 115 30q61 0 103 -37t42 -102q0 -92 -71.5 -139t-182.5 -47z" />
    <glyph glyph-name="egrave" unicode="&#xe8;" horiz-adv-x="1130" 
d="M584 -23q-98 0 -185 36t-155.5 104t-109 177.5t-40.5 246.5q0 114 29.5 209t78 159.5t112.5 109t132 65t138 20.5q98 0 179 -35t142 -104t95 -179.5t34 -253.5v-36h-764q4 -177 95.5 -276t230.5 -99q112 0 186.5 43t139.5 133l102 -90q-161 -230 -440 -230zM274 633h592
q-11 150 -82.5 236.5t-201.5 86.5q-117 0 -203.5 -82t-104.5 -241zM540 1198l-290 324h215l192 -324h-117z" />
    <glyph glyph-name="eacute" unicode="&#xe9;" horiz-adv-x="1130" 
d="M584 -23q-98 0 -185 36t-155.5 104t-109 177.5t-40.5 246.5q0 114 29.5 209t78 159.5t112.5 109t132 65t138 20.5q98 0 179 -35t142 -104t95 -179.5t34 -253.5v-36h-764q4 -177 95.5 -276t230.5 -99q112 0 186.5 43t139.5 133l102 -90q-161 -230 -440 -230zM274 633h592
q-11 150 -82.5 236.5t-201.5 86.5q-117 0 -203.5 -82t-104.5 -241zM490 1198l192 324h215l-290 -324h-117z" />
    <glyph glyph-name="ecircumflex" unicode="&#xea;" horiz-adv-x="1130" 
d="M584 -23q-98 0 -185 36t-155.5 104t-109 177.5t-40.5 246.5q0 114 29.5 209t78 159.5t112.5 109t132 65t138 20.5q98 0 179 -35t142 -104t95 -179.5t34 -253.5v-36h-764q4 -177 95.5 -276t230.5 -99q112 0 186.5 43t139.5 133l102 -90q-161 -230 -440 -230zM274 633h592
q-11 150 -82.5 236.5t-201.5 86.5q-117 0 -203.5 -82t-104.5 -241zM250 1192l264 330h129l264 -330h-106l-224 192l-221 -192h-106z" />
    <glyph glyph-name="edieresis" unicode="&#xeb;" horiz-adv-x="1130" 
d="M584 -23q-98 0 -185 36t-155.5 104t-109 177.5t-40.5 246.5q0 114 29.5 209t78 159.5t112.5 109t132 65t138 20.5q98 0 179 -35t142 -104t95 -179.5t34 -253.5v-36h-764q4 -177 95.5 -276t230.5 -99q112 0 186.5 43t139.5 133l102 -90q-161 -230 -440 -230zM274 633h592
q-11 150 -82.5 236.5t-201.5 86.5q-117 0 -203.5 -82t-104.5 -241zM665 1194v192h183v-192h-183zM293 1194v192h180v-192h-180z" />
    <glyph glyph-name="igrave" unicode="&#xec;" horiz-adv-x="512" 
d="M168 0v1081h176v-1081h-176zM217 1198l-290 324h215l192 -324h-117z" />
    <glyph glyph-name="iacute" unicode="&#xed;" horiz-adv-x="512" 
d="M168 0v1081h176v-1081h-176zM205 1198l192 324h215l-290 -324h-117z" />
    <glyph glyph-name="icircumflex" unicode="&#xee;" horiz-adv-x="512" 
d="M168 0v1081h176v-1081h-176zM-73 1192l264 330h129l264 -330h-106l-224 192l-221 -192h-106z" />
    <glyph glyph-name="idieresis" unicode="&#xef;" horiz-adv-x="512" 
d="M168 0v1081h176v-1081h-176zM350 1194v192h183v-192h-183zM-22 1194v192h180v-192h-180z" />
    <glyph glyph-name="eth" unicode="&#xf0;" horiz-adv-x="1193" 
d="M598 -23q-218 0 -360 148t-142 395q0 126 37 227.5t101.5 167.5t150 101t184.5 35q96 0 187.5 -49t146.5 -130q-51 211 -172 347l-211 -82l-53 110l176 68q-55 53 -151 115l86 108q118 -66 208 -154l199 80l51 -112l-164 -68q226 -283 226 -745q0 -256 -141.5 -409
t-358.5 -153zM598 123q149 0 236.5 109t87.5 292q0 172 -87 279.5t-237 107.5q-151 0 -238.5 -104t-87.5 -285q0 -175 86 -287t240 -112z" />
    <glyph glyph-name="ntilde" unicode="&#xf1;" horiz-adv-x="1204" 
d="M156 0v1081h178v-161q188 184 405 184q154 0 237 -84.5t83 -239.5v-780h-176v741q0 108 -48.5 159.5t-150.5 51.5q-92 0 -175.5 -44t-174.5 -130v-778h-178zM768 1188q-41 0 -86 18t-77.5 39.5t-70 39.5t-65.5 18q-45 0 -64.5 -25.5t-19.5 -85.5h-109q0 244 189 244
q51 0 108.5 -29t107.5 -57.5t85 -28.5q43 0 63.5 26t20.5 85h104q0 -244 -186 -244z" />
    <glyph glyph-name="ograve" unicode="&#xf2;" horiz-adv-x="1193" 
d="M598 -23q-100 0 -190 36.5t-160.5 105.5t-112 178t-41.5 244q0 136 41 245t111.5 177.5t160.5 104.5t191 36q80 0 153.5 -22.5t137 -68.5t110.5 -112t74 -158.5t27 -201.5q0 -135 -41 -244t-111 -178t-160 -105.5t-190 -36.5zM598 127q152 0 238 112.5t86 301.5
q0 115 -35.5 206.5t-110 148t-178.5 56.5q-153 0 -239.5 -112.5t-86.5 -298.5q0 -117 35 -209t110 -148.5t181 -56.5zM565 1198l-290 324h215l192 -324h-117z" />
    <glyph glyph-name="oacute" unicode="&#xf3;" horiz-adv-x="1193" 
d="M598 -23q-100 0 -190 36.5t-160.5 105.5t-112 178t-41.5 244q0 136 41 245t111.5 177.5t160.5 104.5t191 36q80 0 153.5 -22.5t137 -68.5t110.5 -112t74 -158.5t27 -201.5q0 -135 -41 -244t-111 -178t-160 -105.5t-190 -36.5zM598 127q152 0 238 112.5t86 301.5
q0 115 -35.5 206.5t-110 148t-178.5 56.5q-153 0 -239.5 -112.5t-86.5 -298.5q0 -117 35 -209t110 -148.5t181 -56.5zM508 1198l192 324h215l-290 -324h-117z" />
    <glyph glyph-name="ocircumflex" unicode="&#xf4;" horiz-adv-x="1193" 
d="M598 -23q-100 0 -190 36.5t-160.5 105.5t-112 178t-41.5 244q0 136 41 245t111.5 177.5t160.5 104.5t191 36q80 0 153.5 -22.5t137 -68.5t110.5 -112t74 -158.5t27 -201.5q0 -135 -41 -244t-111 -178t-160 -105.5t-190 -36.5zM598 127q152 0 238 112.5t86 301.5
q0 115 -35.5 206.5t-110 148t-178.5 56.5q-153 0 -239.5 -112.5t-86.5 -298.5q0 -117 35 -209t110 -148.5t181 -56.5zM269 1192l264 330h129l264 -330h-106l-224 192l-221 -192h-106z" />
    <glyph glyph-name="otilde" unicode="&#xf5;" horiz-adv-x="1193" 
d="M598 -23q-100 0 -190 36.5t-160.5 105.5t-112 178t-41.5 244q0 136 41 245t111.5 177.5t160.5 104.5t191 36q80 0 153.5 -22.5t137 -68.5t110.5 -112t74 -158.5t27 -201.5q0 -135 -41 -244t-111 -178t-160 -105.5t-190 -36.5zM598 127q152 0 238 112.5t86 301.5
q0 115 -35.5 206.5t-110 148t-178.5 56.5q-153 0 -239.5 -112.5t-86.5 -298.5q0 -117 35 -209t110 -148.5t181 -56.5zM752 1188q-41 0 -86 18t-77.5 39.5t-70 39.5t-65.5 18q-45 0 -64.5 -25.5t-19.5 -85.5h-109q0 244 189 244q51 0 108.5 -29t107.5 -57.5t85 -28.5
q43 0 63.5 26t20.5 85h104q0 -244 -186 -244z" />
    <glyph glyph-name="odieresis" unicode="&#xf6;" horiz-adv-x="1193" 
d="M598 -23q-100 0 -190 36.5t-160.5 105.5t-112 178t-41.5 244q0 136 41 245t111.5 177.5t160.5 104.5t191 36q80 0 153.5 -22.5t137 -68.5t110.5 -112t74 -158.5t27 -201.5q0 -135 -41 -244t-111 -178t-160 -105.5t-190 -36.5zM598 127q152 0 238 112.5t86 301.5
q0 115 -35.5 206.5t-110 148t-178.5 56.5q-153 0 -239.5 -112.5t-86.5 -298.5q0 -117 35 -209t110 -148.5t181 -56.5zM690 1194v192h183v-192h-183zM318 1194v192h180v-192h-180z" />
    <glyph glyph-name="divide" unicode="&#xf7;" horiz-adv-x="1306" 
d="M553 956v189h192v-189h-192zM135 608v148h1039v-148h-1039zM553 217v189h192v-189h-192z" />
    <glyph glyph-name="oslash" unicode="&#xf8;" horiz-adv-x="1193" 
d="M973 936q127 -153 127 -395q0 -135 -41 -244t-111 -178t-160 -105.5t-190 -36.5q-163 0 -289 91l-110 -140l-86 74l112 141q-131 154 -131 398q0 136 41 245t111.5 177.5t160.5 104.5t191 36q163 0 291 -90l106 135l88 -74zM332 270l463 617q-80 71 -197 71
q-154 0 -242 -115t-88 -302q0 -158 64 -271zM864 803l-465 -615q82 -69 199 -69q153 0 240.5 116.5t87.5 305.5q0 153 -62 262z" />
    <glyph glyph-name="ugrave" unicode="&#xf9;" horiz-adv-x="1204" 
d="M465 -20q-155 0 -237.5 83.5t-82.5 237.5v780h177v-743q0 -108 48 -159.5t150 -51.5q93 0 175.5 44t174.5 130v780h179v-1081h-179v162q-186 -182 -405 -182zM573 1198l-290 324h215l192 -324h-117z" />
    <glyph glyph-name="uacute" unicode="&#xfa;" horiz-adv-x="1204" 
d="M465 -20q-155 0 -237.5 83.5t-82.5 237.5v780h177v-743q0 -108 48 -159.5t150 -51.5q93 0 175.5 44t174.5 130v780h179v-1081h-179v162q-186 -182 -405 -182zM506 1198l192 324h215l-290 -324h-117z" />
    <glyph glyph-name="ucircumflex" unicode="&#xfb;" horiz-adv-x="1204" 
d="M465 -20q-155 0 -237.5 83.5t-82.5 237.5v780h177v-743q0 -108 48 -159.5t150 -51.5q93 0 175.5 44t174.5 130v780h179v-1081h-179v162q-186 -182 -405 -182zM269 1192l264 330h129l264 -330h-106l-224 192l-221 -192h-106z" />
    <glyph glyph-name="udieresis" unicode="&#xfc;" horiz-adv-x="1204" 
d="M465 -20q-155 0 -237.5 83.5t-82.5 237.5v780h177v-743q0 -108 48 -159.5t150 -51.5q93 0 175.5 44t174.5 130v780h179v-1081h-179v162q-186 -182 -405 -182zM694 1194v192h183v-192h-183zM322 1194v192h180v-192h-180z" />
    <glyph glyph-name="yacute" unicode="&#xfd;" horiz-adv-x="1091" 
d="M217 -416q-112 0 -203 27l41 141q70 -18 160 -18q81 0 127.5 35.5t79.5 117.5l41 107l-418 1087h186l318 -874h4l317 874h179l-463 -1204q-30 -76 -60 -126.5t-72.5 -90t-100.5 -58t-136 -18.5zM377 1198l192 324h215l-290 -324h-117z" />
    <glyph glyph-name="thorn" unicode="&#xfe;" horiz-adv-x="1226" 
d="M156 -410v1926h176v-584q157 172 356 172q195 0 317.5 -144.5t122.5 -416.5q0 -273 -126 -416t-332 -143q-189 0 -338 155v-549h-176zM645 127q146 0 226.5 102.5t80.5 311.5q0 200 -84.5 305.5t-220.5 105.5q-163 0 -315 -166v-495q145 -164 313 -164z" />
    <glyph glyph-name="ydieresis" unicode="&#xff;" horiz-adv-x="1091" 
d="M217 -416q-112 0 -203 27l41 141q70 -18 160 -18q81 0 127.5 35.5t79.5 117.5l41 107l-418 1087h186l318 -874h4l317 874h179l-463 -1204q-30 -76 -60 -126.5t-72.5 -90t-100.5 -58t-136 -18.5zM645 1194v192h183v-192h-183zM273 1194v192h180v-192h-180z" />
    <glyph glyph-name="dotlessi" unicode="&#x131;" horiz-adv-x="512" 
d="M168 0v1081h176v-1081h-176z" />
    <glyph glyph-name="Lslash" unicode="&#x141;" horiz-adv-x="1165" 
d="M188 0v700l-174 -45v146l174 47v668h181v-621l317 86v-147l-317 -84v-586h727v-164h-908z" />
    <glyph glyph-name="lslash" unicode="&#x142;" horiz-adv-x="622" 
d="M223 0v690l-180 -47v137l180 49v687h176v-642l185 50v-138l-185 -49v-737h-176z" />
    <glyph glyph-name="OE" unicode="&#x152;" horiz-adv-x="2295" 
d="M768 -29q-137 0 -257 55t-208 155t-139 249t-51 328t51 328t139 248.5t208 154.5t257 55q160 0 284 -77.5t197 -211.5v261h916v-166h-750v-473h557v-162h-557v-551h791v-164h-957v264q-73 -135 -197.5 -214t-283.5 -79zM768 133q210 0 339.5 167t129.5 458t-129.5 456.5
t-339.5 165.5q-213 0 -344 -165.5t-131 -456.5t131 -458t344 -167z" />
    <glyph glyph-name="oe" unicode="&#x153;" horiz-adv-x="1939" 
d="M594 -23q-100 0 -189.5 36.5t-159 105.5t-110.5 178t-41 244q0 136 40.5 245t110 177.5t159 104.5t190.5 36q137 0 244.5 -72t162.5 -194q50 118 158.5 192t235.5 74q95 0 175.5 -35t142.5 -103.5t97 -179.5t35 -254v-30h-760q3 -182 93.5 -281.5t230.5 -99.5
q110 0 183.5 43t138.5 133l104 -90q-161 -230 -440 -230q-130 0 -240.5 72t-157.5 189q-57 -119 -162 -190t-241 -71zM1087 633h590q-11 150 -82.5 236.5t-201.5 86.5q-116 0 -201.5 -82t-104.5 -241zM594 125q152 0 236.5 113t84.5 303q0 116 -34 207t-108 147.5t-179 56.5
q-152 0 -237 -112t-85 -299q0 -118 34 -210t108 -149t180 -57z" />
    <glyph glyph-name="Scaron" unicode="&#x160;" horiz-adv-x="1345" 
d="M684 -29q-213 0 -362.5 106t-210.5 290l151 67q57 -151 166 -227t264 -76q162 0 258.5 66t96.5 184q0 77 -33.5 129t-114.5 96t-233 92q-105 32 -174.5 58.5t-137.5 64t-106.5 80.5t-62 104t-23.5 138q0 174 136 287.5t351 113.5q206 0 339 -92.5t196 -247.5l-144 -80
q-60 134 -157.5 195t-235.5 61q-142 0 -224.5 -62t-82.5 -161q0 -49 14 -85.5t40 -65.5t77.5 -55.5t111 -49t156.5 -53.5q98 -30 168.5 -58.5t133.5 -67.5t101.5 -84.5t60.5 -107t22 -137.5q0 -188 -150 -305t-391 -117zM606 1628l-264 330h108l221 -193l222 193h106
l-264 -330h-129z" />
    <glyph glyph-name="scaron" unicode="&#x161;" horiz-adv-x="1048" 
d="M520 -20q-141 0 -257 50.5t-185 133.5l106 106q139 -149 338 -149q126 0 193 43.5t67 126.5q0 77 -64 117t-214 75q-77 18 -129 35t-105 43.5t-83.5 58.5t-50 80t-19.5 109q0 127 103 211t276 84q135 0 233.5 -40t179.5 -116l-92 -117q-140 130 -313 130
q-111 0 -165 -41.5t-54 -104.5q0 -71 59 -107.5t197 -68.5q84 -20 138 -37t111 -44.5t89 -61t52.5 -84t20.5 -115.5q0 -151 -120.5 -234t-311.5 -83zM459 1200l-264 330h108l221 -193l222 193h106l-264 -330h-129z" />
    <glyph glyph-name="Ydieresis" unicode="&#x178;" horiz-adv-x="1292" 
d="M555 0v664l-510 852h193l411 -699l410 699h188l-512 -852v-664h-180zM741 1606v192h183v-192h-183zM369 1606v192h180v-192h-180z" />
    <glyph glyph-name="Zcaron" unicode="&#x17d;" horiz-adv-x="1290" 
d="M82 0v127l887 1237h-830v152h1051v-132l-881 -1234h881v-150h-1108zM584 1628l-264 330h108l221 -193l222 193h106l-264 -330h-129z" />
    <glyph glyph-name="zcaron" unicode="&#x17e;" horiz-adv-x="1044" 
d="M80 0v106l633 832h-584v143h805v-110l-635 -830h666v-141h-885zM459 1200l-264 330h108l221 -193l222 193h106l-264 -330h-129z" />
    <glyph glyph-name="florin" unicode="&#x192;" horiz-adv-x="714" 
d="M-193 -406l19 134q28 -4 74 -4q177 0 196 161l131 953h-188l18 137h189l33 252q19 144 106.5 218.5t257.5 74.5q18 0 56.5 -3.5t45.5 -3.5l-20 -137q-28 4 -74 4q-178 0 -196 -151l-33 -254h237l-18 -137h-238l-133 -969q-19 -138 -105.5 -209.5t-256.5 -71.5
q-53 0 -101 6z" />
    <glyph glyph-name="circumflex" unicode="&#x2c6;" horiz-adv-x="1060" 
d="M201 1192l264 330h129l264 -330h-106l-224 192l-221 -192h-106z" />
    <glyph glyph-name="caron" unicode="&#x2c7;" horiz-adv-x="1060" 
d="M465 1200l-264 330h108l221 -193l222 193h106l-264 -330h-129z" />
    <glyph glyph-name="breve" unicode="&#x2d8;" horiz-adv-x="1024" 
d="M512 1186q-141 0 -225 93.5t-92 250.5h106q24 -213 211 -213t211 213h106q-8 -157 -92 -250.5t-225 -93.5z" />
    <glyph glyph-name="dotaccent" unicode="&#x2d9;" horiz-adv-x="1024" 
d="M410 1206v185h204v-185h-204z" />
    <glyph glyph-name="ring" unicode="&#x2da;" horiz-adv-x="1105" 
d="M553 1182q-85 0 -140 55t-55 139q0 82 55.5 136.5t139.5 54.5t139.5 -54.5t55.5 -136.5q0 -84 -55 -139t-140 -55zM553 1264q46 0 76 31.5t30 80.5q0 47 -30 79t-76 32t-76.5 -32t-30.5 -79q0 -49 30.5 -80.5t76.5 -31.5z" />
    <glyph glyph-name="ogonek" unicode="&#x2db;" horiz-adv-x="1024" 
d="M518 -383q-93 0 -146 42t-53 116q0 118 168 225h111q-141 -97 -141 -197q0 -96 104 -96q87 0 191 51l36 -63q-146 -78 -270 -78z" />
    <glyph glyph-name="tilde" unicode="&#x2dc;" horiz-adv-x="1040" 
d="M672 1188q-41 0 -86 18t-77.5 39.5t-70 39.5t-65.5 18q-45 0 -64.5 -25.5t-19.5 -85.5h-109q0 244 189 244q51 0 108.5 -29t107.5 -57.5t85 -28.5q43 0 63.5 26t20.5 85h104q0 -244 -186 -244z" />
    <glyph glyph-name="hungarumlaut" unicode="&#x2dd;" horiz-adv-x="1042" 
d="M496 1198l204 324h218l-302 -324h-120zM156 1198l198 324h217l-297 -324h-118z" />
    <glyph glyph-name="endash" unicode="&#x2013;" horiz-adv-x="1320" 
d="M133 563v156h1055v-156h-1055z" />
    <glyph glyph-name="emdash" unicode="&#x2014;" horiz-adv-x="1900" 
d="M133 563v156h1634v-156h-1634z" />
    <glyph glyph-name="quoteleft" unicode="&#x2018;" horiz-adv-x="555" 
d="M174 1085v199l107 232h81l-57 -216h74v-215h-205z" />
    <glyph glyph-name="quoteright" unicode="&#x2019;" horiz-adv-x="555" 
d="M193 1085l55 215h-74v216h205v-199l-105 -232h-81z" />
    <glyph glyph-name="quotesinglbase" unicode="&#x201a;" horiz-adv-x="555" 
d="M193 -215l55 215h-74v215h205v-197l-105 -233h-81z" />
    <glyph glyph-name="quotedblleft" unicode="&#x201c;" horiz-adv-x="952" 
d="M573 1085v199l107 232h80l-55 -216h73v-215h-205zM174 1085v199l107 232h81l-57 -216h74v-215h-205z" />
    <glyph glyph-name="quotedblright" unicode="&#x201d;" horiz-adv-x="952" 
d="M592 1085l55 215h-74v216h205v-199l-106 -232h-80zM193 1085l55 215h-74v216h205v-199l-105 -232h-81z" />
    <glyph glyph-name="quotedblbase" unicode="&#x201e;" horiz-adv-x="952" 
d="M592 -215l55 215h-74v215h205v-197l-106 -233h-80zM193 -215l55 215h-74v215h205v-197l-105 -233h-81z" />
    <glyph glyph-name="dagger" unicode="&#x2020;" horiz-adv-x="1159" 
d="M483 -410l31 1256l-422 -23v168l422 -26l-31 551h191l-31 -551l422 26v-168l-422 23l31 -1256h-191z" />
    <glyph glyph-name="daggerdbl" unicode="&#x2021;" horiz-adv-x="1159" 
d="M483 -410l31 478l-401 -27v164l401 -25l-22 377l22 369l-401 -23v162l401 -25l-31 476h191l-31 -476l401 25v-162l-401 23l23 -369l-23 -377l401 25v-164l-401 27l31 -478h-191z" />
    <glyph glyph-name="bullet" unicode="&#x2022;" horiz-adv-x="948" 
d="M473 469q-107 0 -177.5 70.5t-70.5 177.5q0 109 70.5 179.5t177.5 70.5q109 0 179.5 -70.5t70.5 -179.5q0 -107 -70.5 -177.5t-179.5 -70.5z" />
    <glyph glyph-name="ellipsis" unicode="&#x2026;" horiz-adv-x="1662" 
d="M1280 0v215h211v-215h-211zM725 0v215h211v-215h-211zM172 0v215h211v-215h-211z" />
    <glyph glyph-name="perthousand" unicode="&#x2030;" horiz-adv-x="2889" 
d="M473 612q-167 0 -260.5 125.5t-93.5 333.5q0 214 96.5 340.5t259.5 126.5q162 0 256 -124.5t94 -336.5q0 -208 -94 -336.5t-258 -128.5zM487 0l906 1516h159l-905 -1516h-160zM2417 -20q-166 0 -259.5 125.5t-93.5 332.5q0 214 96 340.5t259 126.5q162 0 256 -124.5
t94 -336.5q0 -206 -94.5 -335t-257.5 -129zM1565 -20q-166 0 -259.5 125.5t-93.5 332.5q0 214 97 340.5t260 126.5q161 0 255.5 -125t94.5 -336q0 -207 -95 -335.5t-259 -128.5zM475 748q93 0 144 90t51 235q0 153 -51.5 241.5t-145.5 88.5q-95 0 -146 -90t-51 -236
q0 -154 51 -241.5t148 -87.5zM2417 113q95 0 145.5 91t50.5 238q0 154 -50.5 241t-145.5 87t-147 -90t-52 -236q0 -153 52 -242t147 -89zM1567 113q94 0 145 91.5t51 237.5q0 153 -51.5 240.5t-146.5 87.5t-146 -90t-51 -236q0 -154 51.5 -242.5t147.5 -88.5z" />
    <glyph glyph-name="guilsinglleft" unicode="&#x2039;" horiz-adv-x="681" 
d="M393 0l-309 543l309 538h178l-301 -538l301 -543h-178z" />
    <glyph glyph-name="guilsinglright" unicode="&#x203a;" horiz-adv-x="681" 
d="M109 0l303 543l-303 538h178l311 -538l-311 -543h-178z" />
    <glyph glyph-name="fraction" unicode="&#x2044;" horiz-adv-x="983" 
d="M-33 0l889 1516h160l-887 -1516h-162z" />
    <glyph glyph-name="Euro" unicode="&#x20ac;" horiz-adv-x="1476" 
d="M283 842h-240v133h254q22 143 75 253.5t129 178.5t166 102.5t191 34.5q105 0 188 -30.5t141 -89t98 -134t67 -174.5l-162 -51q-19 66 -37.5 112.5t-45.5 88.5t-60.5 66.5t-80.5 39t-108 14.5q-148 0 -250.5 -103t-136.5 -308h438v-133h-452q-2 -23 -2 -72q0 -19 1 -53.5
t1 -50.5h452v-136h-436q68 -403 389 -403q141 0 221.5 83t126.5 259l162 -47q-58 -212 -185.5 -331.5t-326.5 -119.5q-218 0 -367.5 141t-193.5 418h-256v136h240q-2 33 -2 98q0 53 2 78z" />
    <glyph glyph-name="recordright" unicode="&#x2117;" horiz-adv-x="1769" 
d="M885 -29q-162 0 -307.5 62t-249.5 167t-165 250t-61 306q0 162 61.5 307.5t165.5 251t250 167.5t308 62q214 0 393.5 -104.5t283 -284.5t103.5 -395q0 -161 -61.5 -307.5t-165.5 -252t-249 -167.5t-306 -62zM887 66q187 0 343 92t245.5 250.5t89.5 347.5q0 190 -90 349.5
t-246.5 252t-343.5 92.5q-188 0 -344.5 -92t-246 -250.5t-89.5 -347.5q0 -190 90 -349.5t247 -252t345 -92.5zM621 330v862h303q150 0 229.5 -61.5t79.5 -182.5q0 -128 -84.5 -192t-235.5 -64h-172v-362h-120zM741 797h179q95 0 143.5 34t48.5 111q0 76 -49 109.5t-145 33.5
h-177v-288z" />
    <glyph glyph-name="trademark" unicode="&#x2122;" horiz-adv-x="1812" 
d="M864 649v867h172l242 -697l244 697h172v-867h-129v660l-236 -660h-108l-236 658v-658h-121zM324 649v754h-263v113h658v-113h-264v-754h-131z" />
    <glyph glyph-name="minus" unicode="&#x2212;" horiz-adv-x="1306" 
d="M135 608v148h1039v-148h-1039z" />
    <glyph glyph-name="radical" unicode="&#x221a;" horiz-adv-x="1224" 
d="M440 -4l-393 1079h195l290 -842h5l444 1280h195l-551 -1517h-185z" />
    <glyph glyph-name="registered.alt" unicode="&#xe000;" horiz-adv-x="1112" 
d="M555 596q-198 0 -335.5 138t-137.5 337q0 132 63.5 241.5t172.5 172.5t239 63q198 0 335.5 -137.5t137.5 -335.5q0 -201 -138 -340t-337 -139zM557 664q169 0 286.5 118.5t117.5 288.5q0 171 -118 291.5t-288 120.5q-168 0 -284.5 -119.5t-116.5 -288.5
q0 -172 116.5 -291.5t286.5 -119.5zM379 819v527h186q91 0 140 -40t49 -114q0 -116 -109 -145l123 -228l-90 2l-117 215h-98v-217h-84zM463 1104h98q113 0 113 86q0 80 -115 80h-96v-166z" />
    <glyph glyph-name="fl" unicode="&#xfb02;" horiz-adv-x="1206" 
d="M240 0v936h-189v145h189v146q0 140 78 216.5t233 76.5q18 0 54.5 -3.5t43.5 -3.5v-143q-18 4 -71 4q-77 0 -119.5 -37t-42.5 -114v-142h225v-145h-225v-936h-176zM852 0v1516h176v-1516h-176z" />
    </font>
</defs>
</svg>
